<?xml version="1.0" standalone="no"?>
<!DOCTYPE svg PUBLIC "-//W3C//DTD SVG 1.1//EN" "http://www.w3.org/Graphics/SVG/1.1/DTD/svg11.dtd" >
<svg xmlns="http://www.w3.org/2000/svg">
<metadata>Generated by IcoMoon</metadata>
<defs>
<font id="pe-icon-set-e-commerce" horiz-adv-x="1024">
<font-face units-per-em="1024" ascent="960" descent="-64" />
<missing-glyph horiz-adv-x="1024" />
<glyph unicode="&#x20;" horiz-adv-x="512" d="" />
<glyph unicode="&#xe600;" glyph-name="atm-1-f" horiz-adv-x="960" d="M192 16h576v-64h-576v64zM192 112h128c0 70.4-57.6 128-128 128v-128zM768 112v128c-70.4 0-128-57.6-128-128h128zM768 816h-576v-512c105.6 0 192-86.4 192-192h192c0 105.6 86.4 192 192 192v512zM512 380.8v-12.8c0-17.6-14.4-32-32-32s-32 14.4-32 32v12.8c-46.4 14.4-80 56-80 107.2 0 17.6 14.4 32 32 32s32-14.4 32-32c0-27.2 20.8-48 48-48 24 0 48 12.8 48 41.6 0 8 0 30.4-54.4 41.6 0 0 0 0 0 0s0 0 0 0c-92.8 20.8-105.6 75.2-105.6 105.6 0 49.6 32 89.6 80 100.8v12.8c0 17.6 14.4 32 32 32s32-14.4 32-32v-12.8c40-11.2 72-44.8 78.4-88 3.2-17.6-8-33.6-25.6-36.8s-33.6 9.6-36.8 25.6c-3.2 22.4-24 40-48 40s-48-12.8-48-41.6c0-8 0-28.8 54.4-41.6v0c91.2-20.8 105.6-73.6 105.6-104 0-51.2-33.6-91.2-80-102.4zM912 944h-864c-27.2 0-48-20.8-48-48v-288c0-27.2 20.8-48 48-48h80v304h704v-304h80c27.2 0 48 20.8 48 48v288c0 27.2-20.8 48-48 48z" />
<glyph unicode="&#xe601;" glyph-name="atm-1" d="M80 512h112v-448h640v448h112c44.8 0 80 35.2 80 80v288c0 44.8-35.2 80-80 80h-864c-44.8 0-80-35.2-80-80v-288c0-44.8 35.2-80 80-80zM832 768v0 0zM768 284.8c-80-12.8-144-76.8-156.8-156.8h-198.4c-12.8 80-76.8 144-156.8 156.8v483.2h512v-483.2zM256 219.2c44.8-11.2 80-46.4 91.2-91.2h-91.2v91.2zM676.8 128c11.2 44.8 46.4 80 91.2 91.2v-91.2h-91.2zM64 880c0 9.6 6.4 16 16 16h864c9.6 0 16-6.4 16-16v-288c0-9.6-6.4-16-16-16h-112v64h64v192h-768v-192h64v-64h-112c-9.6 0-16 6.4-16 16v288zM192 0h640v-64h-640v64zM512 424c-27.2 0-48 20.8-48 48 0 17.6-14.4 32-32 32s-32-14.4-32-32c0-51.2 33.6-92.8 80-107.2v-12.8c0-17.6 14.4-32 32-32s32 14.4 32 32v12.8c48 12.8 80 51.2 80 100.8 0 30.4-14.4 83.2-105.6 104 0 0 0 0 0 0-54.4 12.8-54.4 35.2-54.4 43.2 0 28.8 24 41.6 48 41.6s43.2-17.6 48-40c3.2-17.6 19.2-28.8 36.8-25.6s28.8 19.2 25.6 36.8c-8 43.2-38.4 76.8-78.4 88v12.8c0 17.6-14.4 32-32 32s-32-14.4-32-32v-12.8c-48-12.8-80-51.2-80-100.8 0-30.4 14.4-83.2 105.6-104 0 0 0 0 0 0s0 0 0 0c54.4-12.8 54.4-35.2 54.4-43.2 0-28.8-24-41.6-48-41.6z" />
<glyph unicode="&#xe602;" glyph-name="atm-2-f" horiz-adv-x="960" d="M192 256h320v-288h-320v288zM912 928h-864c-27.2 0-48-20.8-48-48v-768c0-27.2 20.8-48 48-48h80v160c-17.6 0-32 14.4-32 32s14.4 32 32 32h448c17.6 0 32-14.4 32-32s-14.4-32-32-32v0-160h336c27.2 0 48 20.8 48 48v768c0 27.2-20.8 48-48 48zM544 384h-416v416h416v-416zM640 736h224v-64h-224v64zM704 416h-32c-17.6 0-32 14.4-32 32s14.4 32 32 32h32c17.6 0 32-14.4 32-32s-14.4-32-32-32zM704 544h-32c-17.6 0-32 14.4-32 32s14.4 32 32 32h32c17.6 0 32-14.4 32-32s-14.4-32-32-32zM832 416h-32c-17.6 0-32 14.4-32 32s14.4 32 32 32h32c17.6 0 32-14.4 32-32s-14.4-32-32-32zM832 544h-32c-17.6 0-32 14.4-32 32s14.4 32 32 32h32c17.6 0 32-14.4 32-32s-14.4-32-32-32z" />
<glyph unicode="&#xe603;" glyph-name="atm-2" d="M608 832h-480v-480h480v480zM544 416h-352v352h352v-352zM80 32h112v-96h384v96h368c44.8 0 80 35.2 80 80v768c0 44.8-35.2 80-80 80h-864c-44.8 0-80-35.2-80-80v-768c0-44.8 35.2-80 80-80zM512 0h-256v224h256v-224zM64 880c0 9.6 6.4 16 16 16h864c9.6 0 16-6.4 16-16v-768c0-9.6-6.4-16-16-16h-368v128h32c17.6 0 32 14.4 32 32s-14.4 32-32 32h-448c-17.6 0-32-14.4-32-32s14.4-32 32-32h32v-128h-112c-9.6 0-16 6.4-16 16v768zM672 736h224v-64h-224v64zM704 544c0 0 0 0 0 0h32c17.6 0 32 14.4 32 32s-14.4 32-32 32c0 0 0 0 0 0h-32c-17.6 0-32-14.4-32-32s14.4-32 32-32zM864 608c0 0 0 0 0 0h-32c-17.6 0-32-14.4-32-32s14.4-32 32-32c0 0 0 0 0 0h32c17.6 0 32 14.4 32 32s-14.4 32-32 32zM704 416c0 0 0 0 0 0h32c17.6 0 32 14.4 32 32s-14.4 32-32 32v0h-32c-17.6 0-32-14.4-32-32s14.4-32 32-32zM864 480v0h-32c-17.6 0-32-14.4-32-32s14.4-32 32-32c0 0 0 0 0 0h32c17.6 0 32 14.4 32 32s-14.4 32-32 32z" />
<glyph unicode="&#xe604;" glyph-name="bag-1-f" horiz-adv-x="768" d="M576 592v160c0 105.6-86.4 192-192 192s-192-86.4-192-192v-160h-192v-640h768v640h-192zM256 752c0 70.4 57.6 128 128 128s128-57.6 128-128v-160h-256v160z" />
<glyph unicode="&#xe605;" glyph-name="bag-1" horiz-adv-x="832" d="M416 960c-105.6 0-192-86.4-192-192v-128h-224v-704h832v704h-224v128c0 105.6-86.4 192-192 192zM288 768c0 70.4 57.6 128 128 128s128-57.6 128-128v-128h-256v128zM768 576v-576h-704v576h160v-32c0-17.6 14.4-32 32-32s32 14.4 32 32v32h256v-32c0-17.6 14.4-32 32-32s32 14.4 32 32v32h160z" />
<glyph unicode="&#xe606;" glyph-name="bag-2-f" horiz-adv-x="768" d="M736 656h-160v96c0 105.6-86.4 192-192 192s-192-86.4-192-192v-96h-160l-32-704h768l-32 704zM256 752c0 70.4 57.6 128 128 128s128-57.6 128-128v-96h-256v96z" />
<glyph unicode="&#xe607;" glyph-name="bag-2" horiz-adv-x="832" d="M416 960c-105.6 0-192-86.4-192-192v-64h-190.4l-35.2-768h835.2l-35.2 768h-190.4v64c0 105.6-86.4 192-192 192zM288 768c0 70.4 57.6 128 128 128s128-57.6 128-128v-64h-256v64zM737.6 640l28.8-640h-700.8l28.8 640h129.6v-96c0-17.6 14.4-32 32-32s32 14.4 32 32v96h256v-96c0-17.6 14.4-32 32-32s32 14.4 32 32v96h129.6z" />
<glyph unicode="&#xe608;" glyph-name="bag-3-f" horiz-adv-x="896" d="M761.6 656h-91.2v-91.2l136-134.4 91.2 89.6zM625.6 520l-19.2 19.2v52.8h-32v160c0 105.6-86.4 192-192 192s-192-86.4-192-192v-160h-192v-640h768v427.2l-140.8 140.8zM254.4 752c0 70.4 57.6 128 128 128s128-57.6 128-128v-160h-256v160zM574.4 144h-384c-17.6 0-32 14.4-32 32s14.4 32 32 32h384c17.6 0 32-14.4 32-32s-14.4-32-32-32zM574.4 304h-384c-17.6 0-32 14.4-32 32s14.4 32 32 32h384c17.6 0 32-14.4 32-32s-14.4-32-32-32z" />
<glyph unicode="&#xe609;" glyph-name="bag-3" horiz-adv-x="976" d="M222.4 768v-128h-224v-704h832v472l8-8 136 136-168 168h-136v-64h-64v128c0 105.6-86.4 192-192 192s-192-86.4-192-192zM734.4 640h44.8l104-104-44.8-44.8-104 104v44.8zM670.4 576v-8l96-96v-472h-704v576h160v-32c0-17.6 14.4-32 32-32s32 14.4 32 32v32h256v-32c0-17.6 14.4-32 32-32s32 14.4 32 32v32h64zM414.4 896c70.4 0 128-57.6 128-128v-128h-256v128c0 70.4 57.6 128 128 128zM222.4 384c-17.6 0-32-14.4-32-32s14.4-32 32-32h384c17.6 0 32 14.4 32 32s-14.4 32-32 32h-384zM606.4 224h-384c-17.6 0-32-14.4-32-32s14.4-32 32-32h384c17.6 0 32 14.4 32 32s-14.4 32-32 32z" />
<glyph unicode="&#xe60a;" glyph-name="bag-4-f" horiz-adv-x="896" d="M761.6 688h-91.2v-91.2l136-134.4 89.6 89.6zM625.6 552l-19.2 19.2v52.8h-30.4v96c0 105.6-86.4 192-192 192s-192-86.4-192-192v-96h-160l-32-640h768l-25.6 452.8-116.8 115.2zM256 720c0 70.4 57.6 128 128 128s128-57.6 128-128v-96h-256v96zM574.4 144h-384c-17.6 0-32 14.4-32 32s14.4 32 32 32h384c17.6 0 32-14.4 32-32s-14.4-32-32-32zM574.4 304h-384c-17.6 0-32 14.4-32 32s14.4 32 32 32h384c17.6 0 32-14.4 32-32s-14.4-32-32-32z" />
<glyph unicode="&#xe60b;" glyph-name="bag-4" horiz-adv-x="976" d="M416 928c-105.6 0-192-86.4-192-192v-64h-190.4l-35.2-704h835.2l-28.8 497.6 33.6-33.6 136 136-168 168h-136v-64h-62.4v64c0 105.6-86.4 192-192 192zM288 736c0 70.4 57.6 128 128 128s128-57.6 128-128v-64h-256v64zM734.4 672h44.8l104-104-44.8-44.8-104 104v44.8zM670.4 608v-8l65.6-65.6 28.8-502.4h-699.2l28.8 576h129.6v-96c0-17.6 14.4-32 32-32s32 14.4 32 32v96h256v-96c0-17.6 14.4-32 32-32s32 14.4 32 32v96h62.4zM222.4 384c-17.6 0-32-14.4-32-32s14.4-32 32-32h384c17.6 0 32 14.4 32 32s-14.4 32-32 32h-384zM606.4 224h-384c-17.6 0-32-14.4-32-32s14.4-32 32-32h384c17.6 0 32 14.4 32 32s-14.4 32-32 32z" />
<glyph unicode="&#xe60c;" glyph-name="bag-5-f" horiz-adv-x="896" d="M864 788.8v118.4l-97.6-59.2zM32 910.4v-121.6l99.2 60.8zM0 720v-768h896v768h-896zM448 368c-105.6 0-192 86.4-192 192 0 17.6 14.4 32 32 32s32-14.4 32-32c0-70.4 57.6-128 128-128s128 57.6 128 128c0 17.6 14.4 32 32 32s32-14.4 32-32c0-105.6-86.4-192-192-192zM147.2 784h601.6l-107.2 64 160 96h-702.4l153.6-96z" />
<glyph unicode="&#xe60d;" glyph-name="bag-5" horiz-adv-x="960" d="M32 960v-192h-32v-832h960v832h-32v192h-896zM161.6 832l-65.6-40v80l65.6-40zM180.8 896h598.4l-105.6-64 107.2-64h-601.6l107.2 64-105.6 64zM798.4 832l65.6 40v-80l-65.6 40zM896 0h-832v704h832v-704zM480 384c105.6 0 192 86.4 192 192 0 17.6-14.4 32-32 32s-32-14.4-32-32c0-70.4-57.6-128-128-128s-128 57.6-128 128c0 17.6-14.4 32-32 32s-32-14.4-32-32c0-105.6 86.4-192 192-192z" />
<glyph unicode="&#xe60e;" glyph-name="bag-6-f" horiz-adv-x="960" d="M864 720v-627.2l96-96v723.2zM809.6 57.6c-1.6 1.6-3.2 3.2-3.2 4.8s-1.6 1.6-1.6 3.2c0 1.6-1.6 1.6-1.6 3.2s0 1.6-1.6 3.2c0 1.6 0 1.6 0 3.2s0 4.8 0 6.4v638.4h-64v-768h179.2l-107.2 105.6c0 0 0 0 0 0zM544 816c0 70.4-57.6 128-128 128h-96c-70.4 0-128-57.6-128-128v-96h-192v-768h672v768h-128v96zM256 720v96c0 35.2 28.8 64 64 64h96c35.2 0 64-28.8 64-64v-96h-224zM672 816v-96h64v96c0 70.4-57.6 128-128 128h-32c-17.6 0-32-14.4-32-32s14.4-32 32-32h32c35.2 0 64-28.8 64-64z" />
<glyph unicode="&#xe60f;" glyph-name="bag-6" d="M768 768v64c0 70.4-57.6 128-128 128h-32c-17.6 0-32-14.4-32-32s14.4-32 32-32h32c35.2 0 64-28.8 64-64v-64h-128v64c0 70.4-57.6 128-128 128h-96c-70.4 0-128-57.6-128-128v-64h-224v-832h1024v832h-256zM832 96c0-1.6 0-4.8 0-6.4s0-1.6 1.6-3.2c0-1.6 0-1.6 1.6-3.2 0-1.6 1.6-1.6 1.6-3.2 0 0 0-1.6 1.6-1.6 1.6-1.6 3.2-3.2 4.8-4.8l73.6-73.6h-148.8v704h64v-608zM288 832c0 35.2 28.8 64 64 64h96c35.2 0 64-28.8 64-64v-64h-224v64zM64 704h640v-704h-640v704zM960 44.8l-64 64v595.2h64v-659.2z" />
<glyph unicode="&#xe610;" glyph-name="banck-check-f" horiz-adv-x="960" d="M385.6 643.2c8 0 16 3.2 22.4 9.6l155.2 155.2c4.8 4.8 12.8 8 19.2 8v0c8 0 14.4-3.2 19.2-8l20.8-19.2-96-96 84.8-84.8 139.2 139.2c0 0 0 0 0 0 24 24 24 60.8 0 84.8-22.4 22.4-59.2 24-83.2 1.6 0 0 0 0 0 0l-20.8 19.2c-17.6 17.6-40 27.2-64 27.2v0c-24 0-46.4-9.6-64-27.2l-155.2-155.2c-12.8-12.8-12.8-32 0-44.8 6.4-6.4 14.4-9.6 22.4-9.6zM179.2 345.6l-51.2-137.6 137.6 52.8 300.8 300.8-86.4 84.8zM654.4 560c-8-8-17.6-12.8-27.2-16-3.2-11.2-8-20.8-16-28.8l-300.8-299.2c-6.4-6.4-14.4-11.2-22.4-14.4l-137.6-52.8c-6.4-3.2-14.4-4.8-22.4-4.8-16 0-33.6 6.4-44.8 19.2-17.6 17.6-24 44.8-14.4 67.2l51.2 137.6c3.2 8 8 16 14.4 22.4l169.6 169.6h-304v-544h960v544h-305.6zM832 144h-414.4c-17.6 0-32 14.4-32 32s14.4 32 32 32h414.4c17.6 0 32-14.4 32-32s-14.4-32-32-32zM832 272h-254.4c-17.6 0-32 14.4-32 32s14.4 32 32 32h254.4c17.6 0 32-14.4 32-32s-14.4-32-32-32z" />
<glyph unicode="&#xe611;" glyph-name="banck-check" d="M0 608v-608h1024v608h-350.4l131.2 131.2c16 17.6 25.6 40 25.6 64s-9.6 48-27.2 65.6c-35.2 35.2-92.8 35.2-128 1.6-17.6 16-38.4 24-62.4 24 0 0 0 0 0 0-24 0-46.4-9.6-64-27.2l-155.2-155.2c-12.8-12.8-12.8-32 0-44.8 6.4-6.4 14.4-9.6 22.4-9.6s16 3.2 22.4 9.6l155.2 155.2c4.8 4.8 11.2 8 19.2 8v0c6.4 0 11.2-1.6 16-6.4l-216-216h-412.8zM960 544v-480h-896v480h284.8l-164.8-164.8-80-209.6 209.6 80 296 294.4h350.4zM536 640l40-40-297.6-296-64-24 24 64 297.6 296zM760 824c4.8-4.8 8-12.8 8-19.2 0-8-3.2-14.4-8-19.2l-139.2-139.2-40 40 118.4 118.4c0 0 0 0 0 0s0 0 0 0l20.8 19.2c11.2 11.2 28.8 11.2 40 0zM609.6 288h254.4c17.6 0 32 14.4 32 32s-14.4 32-32 32h-254.4c-17.6 0-32-14.4-32-32s14.4-32 32-32zM449.6 160h414.4c17.6 0 32 14.4 32 32s-14.4 32-32 32h-414.4c-17.6 0-32-14.4-32-32s14.4-32 32-32z" />
<glyph unicode="&#xe612;" glyph-name="bank-f" d="M512 948.8l-540.8-425.6h1081.6zM960 395.2c17.6 0 32 14.4 32 32s-14.4 32-32 32h-224c-17.6 0-32-14.4-32-32s14.4-32 32-32v0-257.6h-128v257.6h32c17.6 0 32 14.4 32 32s-14.4 32-32 32h-256c-17.6 0-32-14.4-32-32s14.4-32 32-32h32v-257.6h-128v257.6c17.6 0 32 14.4 32 32s-14.4 32-32 32h-224c-17.6 0-32-14.4-32-32s14.4-32 32-32h32v-257.6h-32c-17.6 0-32-14.4-32-32s14.4-32 32-32h896c17.6 0 32 14.4 32 32s-14.4 32-32 32h-32v257.6h32zM992 11.2h-960c-17.6 0-32-14.4-32-32s14.4-32 32-32h960c17.6 0 32 14.4 32 32s-14.4 32-32 32z" />
<glyph unicode="&#xe613;" glyph-name="bank" d="M-28.8 528h1081.6l-540.8 424-540.8-424zM156.8 592l355.2 280 355.2-280h-710.4zM288 400c17.6 0 32 14.4 32 32s-14.4 32-32 32h-224c-17.6 0-32-14.4-32-32s14.4-32 32-32h32v-257.6h-32c-17.6 0-32-14.4-32-32s14.4-32 32-32h896c17.6 0 32 14.4 32 32s-14.4 32-32 32h-32v257.6h32c17.6 0 32 14.4 32 32s-14.4 32-32 32h-224c-17.6 0-32-14.4-32-32s14.4-32 32-32v0-257.6h-128v257.6h32c17.6 0 32 14.4 32 32s-14.4 32-32 32h-256c-17.6 0-32-14.4-32-32s14.4-32 32-32h32v-257.6h-128v257.6zM800 400h64v-257.6h-64v257.6zM480 400h64v-257.6h-64v257.6zM224 142.4h-64v257.6h64v-257.6zM0-16c0-17.6 14.4-32 32-32h960c17.6 0 32 14.4 32 32s-14.4 32-32 32h-960c-17.6 0-32-14.4-32-32z" />
<glyph unicode="&#xe614;" glyph-name="bar-chart-1-f" horiz-adv-x="928" d="M896 144h-32v672h-128v-672h-96v352h-128v-352h-96v480h-128v-480h-96v160h-128v-160h-32c-17.6 0-32-14.4-32-32s14.4-32 32-32h864c17.6 0 32 14.4 32 32s-14.4 32-32 32z" />
<glyph unicode="&#xe615;" glyph-name="bar-chart-1" d="M32 128c-17.6 0-32-14.4-32-32s14.4-32 32-32h960c17.6 0 32 14.4 32 32s-14.4 32-32 32v704h-192v-704h-64v384h-192v-384h-64v512h-192v-512h-64v192h-192v-192zM864 768h64v-640h-64v640zM608 448h64v-320h-64v320zM352 576h64v-448h-64v448zM160 256v-128h-64v128h64z" />
<glyph unicode="&#xe616;" glyph-name="bar-chart-2-f" horiz-adv-x="928" d="M896 0h-32v672h-128v-672h-96v352h-128v-352h-96v480h-128v-480h-96v160h-128v-160h-32c-17.6 0-32-14.4-32-32s14.4-32 32-32h864c17.6 0 32 14.4 32 32s-14.4 32-32 32zM80 448c8 0 14.4 3.2 20.8 8l272 241.6 172.8-86.4c12.8-6.4 27.2-3.2 36.8 6.4l233.6 233.6v-59.2c0-17.6 14.4-32 32-32s32 14.4 32 32v168h-168c-17.6 0-32-14.4-32-32s14.4-32 32-32h59.2l-217.6-217.6-171.2 86.4c-11.2 6.4-25.6 4.8-35.2-4.8l-288-256c-12.8-11.2-14.4-32-3.2-44.8 6.4-8 16-11.2 24-11.2z" />
<glyph unicode="&#xe617;" glyph-name="bar-chart-2" d="M430.4 764.8c-11.2 6.4-25.6 3.2-35.2-4.8l-288-256c-12.8-11.2-14.4-32-3.2-44.8 6.4-8 14.4-11.2 24-11.2 8 0 14.4 3.2 20.8 8l272 241.6 172.8-86.4c12.8-6.4 27.2-3.2 36.8 6.4l233.6 233.6v-59.2c0-17.6 14.4-32 32-32s32 14.4 32 32v168h-168c-17.6 0-32-14.4-32-32s14.4-32 32-32h59.2l-217.6-217.6-171.2 86.4zM32 0c-17.6 0-32-14.4-32-32s14.4-32 32-32h960c17.6 0 32 14.4 32 32s-14.4 32-32 32v640h-192v-640h-64v320h-192v-320h-64v416h-192v-416h-64v192h-192v-192zM864 576h64v-576h-64v576zM608 256h64v-256h-64v256zM352 352h64v-352h-64v352zM160 128v-128h-64v128h64z" />
<glyph unicode="&#xe618;" glyph-name="bar-chart-3-f" horiz-adv-x="960" d="M900.8 32h-32v160h-128v-160h-96v480h-128v-480h-96v352h-128v-352h-96v672h-128v-672h-32c-17.6 0-32-14.4-32-32s14.4-32 32-32h864c17.6 0 32 14.4 32 32s-14.4 32-32 32zM923.2 616c-17.6 0-32-14.4-32-32v-68.8l-240 212.8c-9.6 8-24 11.2-35.2 4.8l-171.2-86.4-272 272c-12.8 12.8-32 12.8-44.8 0s-12.8-32 0-44.8l288-288c9.6-9.6 24-12.8 36.8-6.4l172.8 86.4 209.6-185.6h-48c-17.6 0-32-14.4-32-32s14.4-32 32-32h131.2c0 0 0 0 0 0s0 0 0 0h35.2v168c1.6 17.6-12.8 32-30.4 32z" />
<glyph unicode="&#xe619;" glyph-name="bar-chart-3" d="M796.8 448c0-17.6 14.4-32 32-32h131.2c0 0 0 0 0 0s0 0 0 0h35.2v168c0 17.6-14.4 32-32 32s-32-14.4-32-32v-68.8l-238.4 212.8c-9.6 8-24 11.2-35.2 4.8l-171.2-86.4-272 272c-12.8 12.8-32 12.8-44.8 0s-12.8-32 0-44.8l288-288c9.6-9.6 24-12.8 36.8-6.4l172.8 86.4 208-185.6h-48c-17.6 0-30.4-14.4-30.4-32zM992 32v0 192h-192v-192h-64v416h-192v-416h-64v320h-192v-320h-64v640h-192v-640c-17.6 0-32-14.4-32-32s14.4-32 32-32h960c17.6 0 32 14.4 32 32s-14.4 32-32 32zM864 160h64v-128h-64v128zM608 384h64v-352h-64v352zM352 288h64v-256h-64v256zM160 608v-576h-64v576h64z" />
<glyph unicode="&#xe61a;" glyph-name="bar-chart-4-f" horiz-adv-x="928" d="M896 160h-32v640h-128v-640h-96v480h-128v-480h-96v320h-128v-320h-96v160h-128v-160h-32c-17.6 0-32-14.4-32-32s14.4-32 32-32h864c17.6 0 32 14.4 32 32s-14.4 32-32 32z" />
<glyph unicode="&#xe61b;" glyph-name="bar-chart-4" d="M992 144v672h-192v-672h-64v512h-192v-512h-64v352h-192v-352h-64v192h-192v-192c-17.6 0-32-14.4-32-32s14.4-32 32-32h960c17.6 0 32 14.4 32 32s-14.4 32-32 32zM864 752h64v-608h-64v608zM608 592h64v-448h-64v448zM352 432h64v-288h-64v288zM96 272h64v-128h-64v128z" />
<glyph unicode="&#xe61c;" glyph-name="bar-chart-5-f" horiz-adv-x="928" d="M896 0h-32v640h-128v-640h-96v480h-128v-480h-96v320h-128v-320h-96v160h-128v-160h-32c-17.6 0-32-14.4-32-32s14.4-32 32-32h864c17.6 0 32 14.4 32 32s-14.4 32-32 32zM80 256c6.4 0 14.4 1.6 19.2 6.4l710.4 561.6-8-84.8c-1.6-17.6 11.2-33.6 28.8-35.2 1.6 0 1.6 0 3.2 0 16 0 30.4 12.8 32 28.8l17.6 188.8-188.8 38.4c-17.6 3.2-33.6-8-38.4-25.6-3.2-17.6 8-33.6 25.6-38.4l92.8-19.2-713.6-563.2c-14.4-11.2-16-30.4-4.8-44.8 4.8-8 14.4-12.8 24-12.8z" />
<glyph unicode="&#xe61d;" glyph-name="bar-chart-5" d="M878.4 704c1.6 0 1.6 0 3.2 0 16 0 30.4 12.8 32 28.8l17.6 188.8-188.8 38.4c-17.6 3.2-33.6-8-38.4-25.6s8-33.6 25.6-38.4l92.8-19.2-713.6-563.2c-14.4-11.2-16-30.4-4.8-44.8 4.8-8 14.4-12.8 24-12.8 6.4 0 14.4 1.6 19.2 6.4l710.4 561.6-8-84.8c-1.6-17.6 11.2-33.6 28.8-35.2zM992 0v608h-192v-608h-64v448h-192v-448h-64v288h-192v-288h-64v128h-192v-128c-17.6 0-32-14.4-32-32s14.4-32 32-32h960c17.6 0 32 14.4 32 32s-14.4 32-32 32zM864 544h64v-544h-64v544zM608 384h64v-384h-64v384zM352 224h64v-224h-64v224zM96 64h64v-64h-64v64z" />
<glyph unicode="&#xe61e;" glyph-name="bar-chart-6-f" horiz-adv-x="992" d="M902.4 48h-32v160h-128v-160h-96v320h-128v-320h-96v480h-128v-480h-96v640h-128v-640h-32c-17.6 0-32-14.4-32-32s14.4-32 32-32h864c17.6 0 32 14.4 32 32s-14.4 32-32 32zM164.8 854.4l707.2-502.4-88-16c-17.6-3.2-28.8-20.8-25.6-38.4 3.2-14.4 16-25.6 32-25.6 1.6 0 4.8 0 6.4 0l188.8 38.4-17.6 188.8c-1.6 17.6-17.6 30.4-35.2 28.8s-30.4-17.6-28.8-35.2l8-91.2-710.4 504c-14.4 9.6-35.2 6.4-44.8-8-9.6-12.8-6.4-33.6 8-43.2z" />
<glyph unicode="&#xe61f;" glyph-name="bar-chart-6" d="M974.4 528c-17.6-1.6-30.4-17.6-28.8-35.2l8-91.2-710.4 504c-14.4 9.6-33.6 6.4-44.8-8-9.6-14.4-6.4-35.2 8-44.8l707.2-500.8-88-16c-17.6-3.2-28.8-20.8-25.6-38.4 3.2-16 16-25.6 32-25.6 1.6 0 4.8 0 6.4 0l188.8 38.4-17.6 188.8c-1.6 17.6-17.6 30.4-35.2 28.8zM992 48v0 128h-192v-128h-64v288h-192v-288h-64v448h-192v-448h-64v608h-192v-608c-17.6 0-32-14.4-32-32s14.4-32 32-32h960c17.6 0 32 14.4 32 32s-14.4 32-32 32zM864 112h64v-64h-64v64zM608 272h64v-224h-64v224zM352 432h64v-384h-64v384zM160 592v-544h-64v544h64z" />
<glyph unicode="&#xe620;" glyph-name="basket-1-f" horiz-adv-x="960" d="M928 552h-81.6l-262.4 292.8c-11.2 12.8-32 14.4-44.8 3.2s-14.4-32-3.2-44.8l224-251.2h-560l224 251.2c11.2 12.8 11.2 33.6-3.2 44.8-12.8 11.2-33.6 11.2-44.8-3.2l-260.8-292.8h-83.2c-17.6 0-32-14.4-32-32s14.4-32 32-32h896c17.6 0 32 14.4 32 32s-14.4 32-32 32zM160 40h640l76.8 384h-792z" />
<glyph unicode="&#xe621;" glyph-name="basket-1" d="M32 496h38.4l89.6-454.4c3.2-14.4 16-25.6 32-25.6h640c16 0 28.8 11.2 32 25.6l89.6 454.4h38.4c17.6 0 32 14.4 32 32s-14.4 32-32 32h-64c0 0 0 0 0 0h-17.6l-278.4 308.8c-11.2 12.8-32 14.4-44.8 1.6-12.8-11.2-14.4-32-1.6-44.8l240-267.2h-624l238.4 268.8c11.2 12.8 11.2 33.6-3.2 44.8-12.8 11.2-33.6 11.2-44.8-3.2l-276.8-308.8h-17.6c0 0 0 0 0 0h-65.6c-17.6 0-32-14.4-32-32s14.4-32 32-32zM806.4 80h-587.2l-83.2 416h753.6l-83.2-416z" />
<glyph unicode="&#xe622;" glyph-name="basket-2-f" horiz-adv-x="960" d="M928 552h-81.6l-262.4 292.8c-11.2 12.8-32 14.4-44.8 3.2s-14.4-32-3.2-44.8l224-251.2h-560l224 251.2c11.2 12.8 11.2 33.6-3.2 44.8-12.8 11.2-33.6 11.2-44.8-3.2l-260.8-292.8h-83.2c-17.6 0-32-14.4-32-32s14.4-32 32-32h896c17.6 0 32 14.4 32 32s-14.4 32-32 32zM704 168c0-17.6-14.4-32-32-32s-32 14.4-32 32v256h-128v-256c0-17.6-14.4-32-32-32s-32 14.4-32 32v256h-128v-256c0-17.6-14.4-32-32-32s-32 14.4-32 32v256h-171.2l76.8-384h640l76.8 384h-174.4v-256z" />
<glyph unicode="&#xe623;" glyph-name="basket-2" d="M32 496h38.4l89.6-454.4c3.2-14.4 16-25.6 32-25.6h640c16 0 28.8 11.2 32 25.6l89.6 454.4h38.4c17.6 0 32 14.4 32 32s-14.4 32-32 32h-64c0 0 0 0 0 0h-17.6l-278.4 308.8c-11.2 12.8-32 14.4-44.8 1.6-12.8-11.2-14.4-32-1.6-44.8l240-267.2h-624l238.4 268.8c11.2 12.8 11.2 33.6-3.2 44.8-12.8 11.2-33.6 11.2-44.8-3.2l-276.8-308.8h-17.6c0 0 0 0 0 0h-65.6c-17.6 0-32-14.4-32-32s14.4-32 32-32zM806.4 80h-587.2l-83.2 416h753.6l-83.2-416zM512 432c-17.6 0-32-14.4-32-32v-224c0-17.6 14.4-32 32-32s32 14.4 32 32v224c0 17.6-14.4 32-32 32zM320 432c-17.6 0-32-14.4-32-32v-224c0-17.6 14.4-32 32-32s32 14.4 32 32v224c0 17.6-14.4 32-32 32zM704 432c-17.6 0-32-14.4-32-32v-224c0-17.6 14.4-32 32-32s32 14.4 32 32v224c0 17.6-14.4 32-32 32z" />
<glyph unicode="&#xe624;" glyph-name="basket-3-f" horiz-adv-x="960" d="M928 552h-81.6l-262.4 292.8c-11.2 12.8-32 14.4-44.8 3.2s-14.4-32-3.2-44.8l224-251.2h-560l224 251.2c11.2 12.8 11.2 33.6-3.2 44.8-12.8 11.2-33.6 11.2-44.8-3.2l-260.8-292.8h-83.2c-17.6 0-32-14.4-32-32s14.4-32 32-32h896c17.6 0 32 14.4 32 32s-14.4 32-32 32zM84.8 424l76.8-384h640l76.8 384h-793.6zM704 168h-448c-17.6 0-32 14.4-32 32s14.4 32 32 32h448c17.6 0 32-14.4 32-32s-14.4-32-32-32zM736 296h-512c-17.6 0-32 14.4-32 32s14.4 32 32 32h512c17.6 0 32-14.4 32-32s-14.4-32-32-32z" />
<glyph unicode="&#xe625;" glyph-name="basket-3" d="M32 496h38.4l89.6-454.4c3.2-14.4 16-25.6 32-25.6h640c16 0 28.8 11.2 32 25.6l89.6 454.4h38.4c17.6 0 32 14.4 32 32s-14.4 32-32 32h-64c0 0 0 0 0 0h-17.6l-278.4 308.8c-11.2 12.8-32 14.4-44.8 1.6-12.8-11.2-14.4-32-1.6-44.8l240-267.2h-624l238.4 268.8c11.2 12.8 11.2 33.6-3.2 44.8-12.8 11.2-33.6 11.2-44.8-3.2l-276.8-308.8h-17.6c0 0 0 0 0 0h-65.6c-17.6 0-32-14.4-32-32s14.4-32 32-32zM806.4 80h-587.2l-83.2 416h753.6l-83.2-416zM768 368h-512c-17.6 0-32-14.4-32-32s14.4-32 32-32h512c17.6 0 32 14.4 32 32s-14.4 32-32 32zM736 240h-448c-17.6 0-32-14.4-32-32s14.4-32 32-32h448c17.6 0 32 14.4 32 32s-14.4 32-32 32z" />
<glyph unicode="&#xe626;" glyph-name="basket-4-f" horiz-adv-x="960" d="M896 864c-35.2 0-64-28.8-64-64 0-6.4 1.6-11.2 1.6-16l-376-377.6c-12.8-12.8-12.8-32 0-44.8 6.4-6.4 14.4-9.6 22.4-9.6s16 3.2 22.4 9.6l377.6 376c4.8-1.6 11.2-1.6 16-1.6 35.2 0 64 28.8 64 64s-28.8 64-64 64zM440 480l64 64h-472c-17.6 0-32-14.4-32-32s14.4-32 32-32h408zM547.2 316.8c-17.6-19.2-41.6-28.8-67.2-28.8s-49.6 9.6-67.2 28.8c-27.2 27.2-33.6 65.6-22.4 99.2h-305.6l75.2-384h640l76.8 384h-228.8l-100.8-99.2zM928 544h-152l-64-64h216c17.6 0 32 14.4 32 32s-14.4 32-32 32z" />
<glyph unicode="&#xe627;" glyph-name="basket-4" d="M32 496h38.4l89.6-454.4c3.2-14.4 16-25.6 32-25.6h640c16 0 28.8 11.2 32 25.6l89.6 454.4h38.4c17.6 0 32 14.4 32 32s-14.4 32-32 32h-64c0 0 0 0 0 0h-211.2l195.2 193.6c4.8-1.6 11.2-1.6 16-1.6 35.2 0 64 28.8 64 64s-28.8 64-64 64-64-28.8-64-64c0-6.4 1.6-11.2 1.6-16l-240-240h-528c0 0 0 0 0 0h-65.6c-17.6 0-32-14.4-32-32s14.4-32 32-32zM489.6 377.6c6.4-6.4 14.4-9.6 22.4-9.6s16 3.2 22.4 9.6l118.4 118.4h235.2l-83.2-416h-585.6l-83.2 416h427.2l-73.6-73.6c-12.8-12.8-12.8-32 0-44.8z" />
<glyph unicode="&#xe628;" glyph-name="basket-5-f" horiz-adv-x="960" d="M928 512h-80c0 164.8-116.8 308.8-276.8 344-9.6 24-32 40-59.2 40h-64c-27.2 0-49.6-16-59.2-40-160-35.2-276.8-179.2-276.8-344v0h-80c-17.6 0-32-14.4-32-32s14.4-32 32-32h896c17.6 0 32 14.4 32 32s-14.4 32-32 32zM176 512c0 132.8 92.8 249.6 222.4 280 11.2-14.4 28.8-24 49.6-24h64c20.8 0 38.4 9.6 49.6 24 129.6-30.4 222.4-145.6 222.4-280v0h-608zM704 128c0-17.6-14.4-32-32-32s-32 14.4-32 32v256h-128v-256c0-17.6-14.4-32-32-32s-32 14.4-32 32v256h-128v-256c0-17.6-14.4-32-32-32s-32 14.4-32 32v256h-171.2l75.2-384h640l76.8 384h-172.8v-256z" />
<glyph unicode="&#xe629;" glyph-name="basket-5" d="M512 96c17.6 0 32 14.4 32 32v224c0 17.6-14.4 32-32 32s-32-14.4-32-32v-224c0-17.6 14.4-32 32-32zM320 96c17.6 0 32 14.4 32 32v224c0 17.6-14.4 32-32 32s-32-14.4-32-32v-224c0-17.6 14.4-32 32-32zM704 96c17.6 0 32 14.4 32 32v224c0 17.6-14.4 32-32 32s-32-14.4-32-32v-224c0-17.6 14.4-32 32-32zM992 512h-64c0 0 0 0 0 0h-32c0 158.4-107.2 297.6-257.6 339.2-9.6 43.2-48 76.8-94.4 76.8h-64c-46.4 0-84.8-33.6-94.4-76.8-150.4-41.6-257.6-180.8-257.6-339.2h-30.4c0 0 0 0 0 0h-65.6c-17.6 0-32-14.4-32-32s14.4-32 32-32h38.4l89.6-454.4c3.2-14.4 16-25.6 32-25.6h640c16 0 28.8 11.2 32 25.6l89.6 454.4h38.4c17.6 0 32 14.4 32 32s-14.4 32-32 32zM480 864h64c17.6 0 32-14.4 32-32s-14.4-32-32-32h-64c-17.6 0-32 14.4-32 32s14.4 32 32 32zM395.2 787.2c16-30.4 48-51.2 84.8-51.2h64c36.8 0 68.8 20.8 84.8 51.2 120-36.8 203.2-148.8 203.2-275.2h-640c0 126.4 83.2 238.4 203.2 275.2zM806.4 32h-587.2l-83.2 416h753.6l-83.2-416z" />
<glyph unicode="&#xe62a;" glyph-name="basket-24-f" horiz-adv-x="992" d="M928 616h-81.6l-262.4 292.8c-11.2 12.8-32 14.4-44.8 3.2s-14.4-32-3.2-44.8l224-251.2h-560l224 251.2c11.2 12.8 9.6 33.6-3.2 44.8s-33.6 11.2-44.8-3.2l-260.8-292.8h-83.2c-17.6 0-32-14.4-32-32s14.4-32 32-32h896c17.6 0 32 14.4 32 32s-14.4 32-32 32zM960 136h-32v64c0 17.6-14.4 32-32 32s-32-14.4-32-32v-64h-80l76.8 179.2c6.4 16 0 35.2-16 41.6s-35.2 0-41.6-17.6l-115.2-267.2h176v-64c0-17.6 14.4-32 32-32s32 14.4 32 32v64h32c17.6 0 32 14.4 32 32s-14.4 32-32 32zM672 40h-123.2l94.4 110.4c19.2 22.4 28.8 51.2 28.8 81.6 0 70.4-57.6 128-128 128-32 0-62.4-11.2-84.8-32-12.8-11.2-14.4-32-3.2-44.8s32-14.4 44.8-3.2c11.2 11.2 27.2 16 43.2 16 35.2 0 64-28.8 64-64 0-14.4-4.8-28.8-14.4-40l-182.4-216h260.8c17.6 0 32 14.4 32 32s-14.4 32-32 32zM484.8 272c-1.6 0-1.6 0-3.2 0 0 0 0 0 1.6 0 0-1.6 1.6 0 1.6 0zM547.2 232c-17.6-16-40-24-64-24-27.2 0-52.8 11.2-72 32-35.2 40-32 100.8 8 136 35.2 32 80 49.6 128 49.6 78.4 0 145.6-46.4 176-115.2l24 56c14.4 35.2 49.6 57.6 88 57.6 9.6 0 19.2-1.6 28.8-4.8l14.4 68.8h-795.2l76.8-384h278.4l108.8 128zM835.2 360c0 0 0 0 0 0s0 0 0 0v0z" />
<glyph unicode="&#xe62b;" glyph-name="basket-24" d="M992 128h-32v64c0 17.6-14.4 32-32 32s-32-14.4-32-32v-64h-80l76.8 179.2c6.4 16 0 35.2-16 41.6s-35.2 0-41.6-16l-115.2-268.8h176v-64c0-17.6 14.4-32 32-32s32 14.4 32 32v64h32c17.6 0 32 14.4 32 32s-14.4 32-32 32zM675.2 142.4c19.2 22.4 28.8 51.2 28.8 81.6 0 70.4-57.6 128-128 128-32 0-62.4-11.2-84.8-32-12.8-11.2-14.4-32-3.2-44.8s32-14.4 44.8-3.2c11.2 11.2 27.2 16 43.2 16 35.2 0 64-28.8 64-64 0-14.4-4.8-28.8-14.4-40l-182.4-216h260.8c17.6 0 32 14.4 32 32s-14.4 32-32 32h-123.2l91.2 107.2 3.2 3.2zM32 544h38.4l89.6-454.4c3.2-14.4 16-25.6 32-25.6h224c17.6 0 32 14.4 32 32s-14.4 32-32 32h-196.8l-83.2 416h753.6l-17.6-88c-3.2-17.6 8-33.6 25.6-38.4 1.6 0 4.8 0 6.4 0 14.4 0 28.8 11.2 32 25.6l20.8 100.8h35.2c17.6 0 32 14.4 32 32s-14.4 32-32 32h-64c0 0 0 0 0 0h-17.6l-278.4 308.8c-11.2 12.8-32 14.4-44.8 1.6-12.8-11.2-14.4-32-1.6-44.8l240-267.2h-624l238.4 268.8c11.2 12.8 11.2 33.6-3.2 44.8-12.8 11.2-33.6 11.2-44.8-3.2l-276.8-308.8h-17.6c0 0 0 0 0 0h-65.6c-17.6 0-32-14.4-32-32s14.4-32 32-32z" />
<glyph unicode="&#xe62c;" glyph-name="basket-advice-f" horiz-adv-x="960" d="M928 632h-81.6l-262.4 292.8c-11.2 12.8-32 14.4-44.8 3.2s-14.4-32-3.2-44.8l224-251.2h-560l224 251.2c11.2 12.8 11.2 33.6-3.2 44.8-12.8 11.2-33.6 11.2-44.8-3.2l-260.8-292.8h-83.2c-17.6 0-32-14.4-32-32s14.4-32 32-32h896c17.6 0 32 14.4 32 32s-14.4 32-32 32zM704 440l-256-480h512l-256 480zM672 248c0 17.6 14.4 32 32 32s32-14.4 32-32v-96c0-17.6-14.4-32-32-32s-32 14.4-32 32v96zM704 24c-8 0-16 3.2-22.4 9.6s-9.6 14.4-9.6 22.4c0 8 3.2 16 9.6 22.4 12.8 12.8 33.6 12.8 44.8 0 6.4-6.4 9.6-14.4 9.6-22.4s-3.2-16-9.6-22.4c-6.4-6.4-14.4-9.6-22.4-9.6zM760 470.4l80-148.8 36.8 184h-172.8c24-1.6 44.8-14.4 56-35.2zM648 470.4c11.2 20.8 32 33.6 56 33.6h-619.2l76.8-384h300.8l185.6 350.4z" />
<glyph unicode="&#xe62d;" glyph-name="basket-advice" d="M713.6 86.4c-6.4-6.4-9.6-14.4-9.6-22.4s3.2-16 9.6-22.4c6.4-6.4 14.4-9.6 22.4-9.6s16 3.2 22.4 9.6c6.4 6.4 9.6 14.4 9.6 22.4s-3.2 16-9.6 22.4c-11.2 12.8-33.6 12.8-44.8 0zM704 256v-96c0-17.6 14.4-32 32-32s32 14.4 32 32v96c0 17.6-14.4 32-32 32s-32-14.4-32-32zM436.8 952c-12.8 11.2-33.6 11.2-44.8-3.2l-276.8-308.8h-17.6c0 0 0 0 0 0h-65.6c-17.6 0-32-14.4-32-32s14.4-32 32-32h38.4l89.6-454.4c3.2-14.4 16-25.6 32-25.6h320l-60.8-113.6c-4.8-9.6-4.8-22.4 0-32 6.4-9.6 16-16 27.2-16h512c11.2 0 22.4 6.4 27.2 16 6.4 9.6 6.4 22.4 0 32l-134.4 252.8 70.4 340.8h38.4c17.6 0 32 14.4 32 32s-14.4 32-32 32h-64c0 0 0 0 0 0h-17.6l-278.4 308.8c-11.2 12.8-32 14.4-44.8 1.6-12.8-11.2-14.4-32-1.6-44.8l240-267.2h-624l238.4 268.8c11.2 12.8 11.2 33.6-3.2 44.8zM532.8 0l203.2 380.8 203.2-380.8h-406.4zM764.8 462.4c-4.8 11.2-16 17.6-28.8 17.6s-22.4-6.4-28.8-17.6l-161.6-302.4h-326.4l-83.2 416h752l-51.2-251.2-72 137.6z" />
<glyph unicode="&#xe62e;" glyph-name="basket-ban-f" horiz-adv-x="992" d="M889.6 584v0h38.4c17.6 0 32 14.4 32 32s-14.4 32-32 32h-81.6l-262.4 292.8c-11.2 12.8-32 14.4-44.8 3.2s-14.4-32-3.2-44.8l224-251.2h-560l224 251.2c11.2 12.8 11.2 33.6-3.2 44.8-12.8 11.2-33.6 11.2-44.8-3.2l-260.8-292.8h-83.2c-17.6 0-32-14.4-32-32s14.4-32 32-32h857.6zM867.2 468.8l9.6 51.2h-172.8c0 0 0 0 0 0s0 0 0 0h-619.2l76.8-384h272c40-112 145.6-192 270.4-192 158.4 0 288 129.6 288 288 0 99.2-49.6 185.6-124.8 236.8zM704 456c49.6 0 96-17.6 134.4-44.8l-313.6-313.6c-28.8 38.4-44.8 84.8-44.8 134.4 0 123.2 100.8 224 224 224zM704 8c-49.6 0-96 17.6-134.4 44.8l313.6 313.6c28.8-36.8 44.8-83.2 44.8-134.4 0-123.2-100.8-224-224-224z" />
<glyph unicode="&#xe62f;" glyph-name="basket-ban" d="M992 576c17.6 0 32 14.4 32 32s-14.4 32-32 32h-64c0 0 0 0 0 0h-17.6l-278.4 308.8c-11.2 12.8-32 14.4-44.8 1.6-12.8-11.2-14.4-32-1.6-44.8l240-267.2h-624l238.4 268.8c11.2 12.8 11.2 33.6-3.2 44.8-12.8 11.2-33.6 11.2-44.8-3.2l-276.8-308.8h-17.6c0 0 0 0 0 0h-65.6c-17.6 0-32-14.4-32-32s14.4-32 32-32h38.4l89.6-454.4c3.2-14.4 16-25.6 32-25.6h286.4c48-94.4 145.6-160 257.6-160 158.4 0 288 129.6 288 288 0 84.8-38.4 161.6-97.6 214.4l27.2 137.6h38.4zM870.4 403.2l-313.6-313.6c-27.2 38.4-44.8 84.8-44.8 134.4 0 123.2 100.8 224 224 224 49.6 0 96-17.6 134.4-44.8zM736 0c-49.6 0-96 17.6-134.4 44.8l313.6 313.6c27.2-38.4 44.8-84.8 44.8-134.4 0-123.2-100.8-224-224-224zM736 512c-158.4 0-288-129.6-288-288 0-22.4 3.2-43.2 8-64h-236.8l-83.2 416h753.6l-19.2-97.6c-41.6 20.8-86.4 33.6-134.4 33.6z" />
<glyph unicode="&#xe630;" glyph-name="basket-check-f" horiz-adv-x="960" d="M889.6 568v0h38.4c17.6 0 32 14.4 32 32s-14.4 32-32 32h-81.6l-262.4 292.8c-11.2 12.8-32 14.4-44.8 3.2s-14.4-32-3.2-44.8l224-251.2h-560l224 251.2c11.2 12.8 11.2 33.6-3.2 44.8-12.8 11.2-33.6 11.2-44.8-3.2l-260.8-292.8h-83.2c-17.6 0-32-14.4-32-32s14.4-32 32-32h857.6zM876.8 504h-33.6c11.2-4.8 20.8-11.2 30.4-17.6l3.2 17.6zM564.8 504h-480l76.8-384h238.4c-9.6 30.4-14.4 62.4-14.4 96-1.6 126.4 72 236.8 179.2 288zM704 472c-140.8 0-256-115.2-256-256s115.2-256 256-256c140.8 0 256 115.2 256 256s-115.2 256-256 256zM840 259.2l-150.4-169.6-104 104c-12.8 12.8-12.8 32 0 44.8s32 12.8 44.8 0l56-56 105.6 118.4c11.2 12.8 32 14.4 44.8 3.2s14.4-32 3.2-44.8z" />
<glyph unicode="&#xe631;" glyph-name="basket-check" d="M824 308.8l-105.6-118.4-56 56c-12.8 12.8-32 12.8-44.8 0s-12.8-32 0-44.8l104-104 150.4 169.6c11.2 12.8 11.2 33.6-3.2 44.8-12.8 11.2-33.6 11.2-44.8-3.2zM32 576h38.4l89.6-454.4c3.2-14.4 16-25.6 32-25.6h286.4c48-94.4 145.6-160 257.6-160 158.4 0 288 129.6 288 288 0 84.8-38.4 161.6-97.6 214.4l27.2 137.6h38.4c17.6 0 32 14.4 32 32s-14.4 32-32 32h-64c0 0 0 0 0 0h-17.6l-278.4 308.8c-11.2 12.8-32 14.4-44.8 1.6-12.8-11.2-14.4-32-1.6-44.8l240-267.2h-624l238.4 268.8c11.2 12.8 11.2 33.6-3.2 44.8-12.8 11.2-33.6 11.2-44.8-3.2l-276.8-308.8h-17.6c0 0 0 0 0 0h-65.6c-17.6 0-32-14.4-32-32s14.4-32 32-32zM960 224c0-123.2-100.8-224-224-224s-224 100.8-224 224 100.8 224 224 224 224-100.8 224-224zM736 512c-158.4 0-288-129.6-288-288 0-22.4 3.2-43.2 8-64h-236.8l-83.2 416h753.6l-19.2-97.6c-41.6 20.8-86.4 33.6-134.4 33.6z" />
<glyph unicode="&#xe632;" glyph-name="basket-circle-f" horiz-adv-x="960" d="M889.6 568v0h38.4c17.6 0 32 14.4 32 32s-14.4 32-32 32h-81.6l-262.4 292.8c-11.2 12.8-32 14.4-44.8 3.2s-14.4-32-3.2-44.8l224-251.2h-560l224 251.2c11.2 12.8 11.2 33.6-3.2 44.8-12.8 11.2-33.6 11.2-44.8-3.2l-260.8-292.8h-83.2c-17.6 0-32-14.4-32-32s14.4-32 32-32h857.6zM876.8 504h-33.6c11.2-4.8 20.8-11.2 30.4-17.6l3.2 17.6zM564.8 504h-480l76.8-384h238.4c-9.6 30.4-14.4 62.4-14.4 96-1.6 126.4 72 236.8 179.2 288zM704 472c-140.8 0-256-115.2-256-256s115.2-256 256-256c140.8 0 256 115.2 256 256s-115.2 256-256 256z" />
<glyph unicode="&#xe633;" glyph-name="basket-circle" d="M32 576h38.4l89.6-454.4c3.2-14.4 16-25.6 32-25.6h286.4c48-94.4 145.6-160 257.6-160 158.4 0 288 129.6 288 288 0 84.8-38.4 161.6-97.6 214.4l27.2 137.6h38.4c17.6 0 32 14.4 32 32s-14.4 32-32 32h-64c0 0 0 0 0 0h-17.6l-278.4 308.8c-11.2 12.8-32 14.4-44.8 1.6-12.8-11.2-14.4-32-1.6-44.8l240-267.2h-624l238.4 268.8c11.2 12.8 11.2 33.6-3.2 44.8-12.8 11.2-33.6 11.2-44.8-3.2l-276.8-308.8h-17.6c0 0 0 0 0 0h-65.6c-17.6 0-32-14.4-32-32s14.4-32 32-32zM960 224c0-123.2-100.8-224-224-224s-224 100.8-224 224 100.8 224 224 224 224-100.8 224-224zM736 512c-158.4 0-288-129.6-288-288 0-22.4 3.2-43.2 8-64h-236.8l-83.2 416h753.6l-19.2-97.6c-41.6 20.8-86.4 33.6-134.4 33.6z" />
<glyph unicode="&#xe634;" glyph-name="basket-cog-f" horiz-adv-x="960" d="M926.4 632h-81.6l-262.4 292.8c-11.2 12.8-32 14.4-44.8 3.2s-14.4-32-3.2-44.8l224-251.2h-560l224 251.2c11.2 12.8 11.2 33.6-1.6 44.8s-33.6 11.2-44.8-3.2l-262.4-292.8h-83.2c-17.6 0-32-14.4-32-32s14.4-32 32-32h896c17.6 0 32 14.4 32 32s-14.4 32-32 32zM907.2 166.4c1.6 11.2 3.2 22.4 3.2 33.6 0 12.8-1.6 24-3.2 36.8l49.6 28.8-64 110.4-49.6-28.8c-17.6 14.4-38.4 27.2-59.2 33.6v59.2h-128v-59.2c-22.4-8-41.6-19.2-59.2-33.6l-49.6 28.8-64-110.4 48-27.2c-1.6-11.2-3.2-24-3.2-36.8 0-11.2 1.6-22.4 3.2-33.6l-52.8-30.4 64-110.4 52.8 30.4c17.6-16 38.4-27.2 60.8-35.2v-59.2h128v59.2c22.4 8 43.2 20.8 62.4 36.8l52.8-30.4 64 110.4-56 27.2zM718.4 120c-44.8 0-80 35.2-80 80s35.2 80 80 80 80-35.2 80-80c0-44.8-35.2-80-80-80zM846.4 440v-17.6l14.4 8c0 0 0 0 1.6 0l14.4 72h-92.8c35.2 0 62.4-27.2 62.4-62.4zM414.4 152c4.8 16 14.4 30.4 30.4 38.4l17.6 9.6c0 0 0 0 0 0l-12.8 8c-14.4 8-25.6 22.4-30.4 38.4s-1.6 33.6 6.4 48l64 110.4c8 14.4 22.4 25.6 38.4 30.4 4.8 1.6 11.2 1.6 16 1.6 11.2 0 22.4-3.2 32-8l12.8-8v16c0 35.2 27.2 62.4 62.4 64h-568l76.8-384h256c-4.8 14.4-4.8 24-1.6 35.2z" />
<glyph unicode="&#xe635;" glyph-name="basket-cog" d="M748.8 320c-62.4 0-112-49.6-112-112s49.6-112 112-112 112 49.6 112 112-49.6 112-112 112zM748.8 160c-27.2 0-48 20.8-48 48s20.8 48 48 48 48-20.8 48-48-20.8-48-48-48zM992 640h-64c0 0 0 0 0 0h-17.6l-278.4 308.8c-11.2 12.8-32 14.4-44.8 1.6s-14.4-32-1.6-44.8l240-267.2h-624l238.4 268.8c11.2 12.8 11.2 33.6-3.2 44.8-12.8 11.2-33.6 11.2-44.8-3.2l-276.8-308.8h-17.6c0 0 0 0 0 0h-65.6c-17.6 0-32-14.4-32-32s14.4-32 32-32h38.4l89.6-454.4c3.2-14.4 16-25.6 32-25.6h305.6l46.4-80c9.6-16 28.8-20.8 43.2-11.2l33.6 19.2c9.6-6.4 20.8-12.8 32-19.2v-36.8c0-17.6 14.4-32 32-32h128c17.6 0 32 14.4 32 32v38.4c11.2 4.8 22.4 11.2 32 19.2l35.2-19.2c8-4.8 16-4.8 24-3.2s14.4 8 19.2 14.4l64 110.4c4.8 8 4.8 16 3.2 24s-8 14.4-14.4 19.2l-35.2 20.8c0 4.8 0 11.2 0 16 0 6.4 0 12.8-1.6 19.2l30.4 17.6c8 4.8 12.8 11.2 14.4 19.2s1.6 17.6-3.2 24l-64 110.4c-4.8 8-11.2 12.8-19.2 14.4-3.2 0-4.8 1.6-8 1.6l30.4 160h40c17.6 0 32 14.4 32 32s-14.4 33.6-32 33.6zM484.8 288c-4.8-8-4.8-16-3.2-24s8-14.4 14.4-19.2l28.8-17.6c0-6.4-1.6-12.8-1.6-19.2 0-4.8 0-11.2 0-17.6l-35.2-19.2c-4.8-3.2-8-6.4-11.2-11.2h-257.6l-83.2 416h753.6l-33.6-171.2c-3.2 1.6-8 4.8-11.2 6.4v36.8c0 17.6-14.4 32-32 32h-128c-17.6 0-32-14.4-32-32v-38.4c-9.6-4.8-20.8-11.2-28.8-17.6l-32 19.2c-8 4.8-16 4.8-24 3.2s-14.4-8-19.2-14.4l-64-112zM942.4 284.8l-20.8-12.8c-11.2-6.4-17.6-20.8-16-33.6 1.6-9.6 3.2-20.8 3.2-30.4s-1.6-19.2-3.2-27.2c-1.6-12.8 3.2-27.2 16-33.6l27.2-16-32-56-25.6 14.4c-11.2 6.4-27.2 4.8-36.8-3.2-16-12.8-33.6-24-51.2-30.4-12.8-4.8-20.8-16-20.8-30.4v-25.6h-64v27.2c0 12.8-8 25.6-20.8 30.4-19.2 6.4-35.2 16-51.2 30.4-9.6 9.6-25.6 9.6-36.8 3.2l-24-14.4-32 56 25.6 14.4c11.2 6.4 17.6 20.8 16 33.6-1.6 9.6-3.2 19.2-3.2 28.8s1.6 20.8 3.2 30.4c3.2 12.8-3.2 27.2-16 33.6l-20.8 11.2 32 56 20.8-12.8c11.2-6.4 25.6-4.8 36.8 3.2 14.4 12.8 32 22.4 49.6 28.8 12.8 4.8 20.8 16 20.8 30.4v25.6h64v-27.2c0-12.8 8-25.6 20.8-30.4 17.6-6.4 35.2-16 49.6-28.8 9.6-8 25.6-9.6 36.8-3.2l22.4 12.8 30.4-54.4z" />
<glyph unicode="&#xe636;" glyph-name="basket-dollar-f" horiz-adv-x="960" d="M928 632h-81.6l-262.4 292.8c-11.2 12.8-32 14.4-44.8 3.2s-14.4-32-3.2-44.8l224-251.2h-560l224 251.2c11.2 12.8 11.2 32-3.2 44.8-12.8 11.2-33.6 11.2-44.8-3.2l-260.8-292.8h-83.2c-17.6 0-32-14.4-32-32s14.4-32 32-32h896c17.6 0 32 14.4 32 32s-14.4 32-32 32zM888 139.2c0 76.8-62.4 107.2-129.6 129.6-94.4 30.4-99.2 38.4-99.2 62.4 0 30.4 40 49.6 78.4 49.6 43.2 0 72-20.8 84.8-65.6 4.8-17.6 22.4-27.2 40-22.4s27.2 22.4 22.4 40c-17.6 60.8-57.6 99.2-113.6 108.8v32c0 17.6-14.4 32-32 32s-32-14.4-32-32v-32c-57.6-9.6-110.4-48-110.4-110.4 0-76.8 60.8-97.6 142.4-123.2 80-25.6 86.4-46.4 86.4-68.8 0-40-44.8-52.8-86.4-52.8-64 0-86.4 44.8-89.6 70.4-1.6 17.6-17.6 30.4-35.2 27.2-17.6-1.6-30.4-17.6-27.2-35.2 6.4-54.4 46.4-110.4 120-123.2v-32c0-17.6 14.4-32 32-32s32 14.4 32 32v32c80 9.6 116.8 60.8 116.8 113.6zM612.8 184c1.6 0 3.2 0 4.8 0 0 0-1.6 0-1.6 0s-1.6 0-3.2 0zM521.6 140.8c-3.2 25.6 3.2 51.2 19.2 70.4 6.4 8 12.8 14.4 22.4 20.8-19.2 24-32 56-32 99.2 0 70.4 43.2 129.6 112 158.4 1.6 4.8 1.6 9.6 3.2 14.4h-561.6l76.8-384h364.8c-3.2 6.4-4.8 12.8-4.8 20.8zM832 488c12.8-6.4 25.6-14.4 36.8-22.4l8 38.4h-48c1.6-4.8 3.2-11.2 3.2-16z" />
<glyph unicode="&#xe637;" glyph-name="basket-dollar" d="M768 76.8c-64 0-86.4 44.8-89.6 70.4-1.6 17.6-17.6 30.4-35.2 27.2-17.6-1.6-30.4-17.6-27.2-35.2 6.4-54.4 46.4-110.4 120-123.2v-32c0-17.6 14.4-32 32-32s32 14.4 32 32v32c81.6 11.2 118.4 64 118.4 115.2 0 76.8-62.4 107.2-129.6 129.6-94.4 30.4-99.2 38.4-99.2 62.4 0 30.4 40 49.6 78.4 49.6 43.2 0 72-20.8 84.8-65.6 4.8-17.6 22.4-27.2 40-22.4s27.2 22.4 22.4 40c-19.2 60.8-59.2 97.6-115.2 107.2v32c0 17.6-14.4 32-32 32s-32-14.4-32-32v-32c-57.6-9.6-110.4-48-110.4-110.4 0-76.8 60.8-97.6 142.4-123.2 80-25.6 86.4-46.4 86.4-68.8 1.6-38.4-43.2-52.8-86.4-52.8zM992 624h-64c0 0 0 0 0 0h-17.6l-278.4 308.8c-11.2 12.8-32 14.4-44.8 1.6-12.8-11.2-14.4-32-1.6-44.8l240-267.2h-624l238.4 268.8c11.2 12.8 11.2 33.6-3.2 44.8-12.8 11.2-33.6 11.2-44.8-3.2l-276.8-308.8h-17.6c0 0 0 0 0 0h-65.6c-17.6 0-32-14.4-32-32s14.4-32 32-32h38.4l89.6-454.4c3.2-14.4 16-25.6 32-25.6h331.2c17.6 0 32 14.4 32 32s-14.4 32-32 32h-304l-83.2 416h752l-17.6-89.6c-3.2-17.6 8-33.6 25.6-38.4 1.6 0 4.8 0 6.4 0 14.4 0 28.8 11.2 32 25.6l20.8 102.4h36.8c17.6 0 32 14.4 32 32s-14.4 32-32 32z" />
<glyph unicode="&#xe638;" glyph-name="basket-down-f" horiz-adv-x="960" d="M889.6 568v0h38.4c17.6 0 32 14.4 32 32s-14.4 32-32 32h-81.6l-262.4 292.8c-11.2 12.8-32 14.4-44.8 3.2s-14.4-32-3.2-44.8l224-251.2h-560l224 251.2c11.2 12.8 11.2 33.6-3.2 44.8-12.8 11.2-33.6 11.2-44.8-3.2l-260.8-292.8h-83.2c-17.6 0-32-14.4-32-32s14.4-32 32-32h857.6zM876.8 504h-33.6c11.2-4.8 20.8-11.2 30.4-17.6l3.2 17.6zM564.8 504h-480l76.8-384h238.4c-9.6 30.4-14.4 62.4-14.4 96-1.6 126.4 72 236.8 179.2 288zM704 472c-140.8 0-256-115.2-256-256s115.2-256 256-256c140.8 0 256 115.2 256 256s-115.2 256-256 256zM822.4 161.6l-118.4-118.4-118.4 118.4c-12.8 12.8-12.8 32 0 44.8s32 12.8 44.8 0l41.6-41.6v179.2c0 17.6 14.4 32 32 32s32-14.4 32-32v-179.2l41.6 41.6c12.8 12.8 32 12.8 44.8 0s12.8-32 0-44.8z" />
<glyph unicode="&#xe639;" glyph-name="basket-down" d="M809.6 214.4l-41.6-41.6v179.2c0 17.6-14.4 32-32 32s-32-14.4-32-32v-179.2l-41.6 41.6c-12.8 12.8-32 12.8-44.8 0s-12.8-32 0-44.8l118.4-118.4 118.4 118.4c12.8 12.8 12.8 32 0 44.8s-32 12.8-44.8 0zM992 576c17.6 0 32 14.4 32 32s-14.4 32-32 32h-64c0 0 0 0 0 0h-17.6l-278.4 308.8c-11.2 12.8-32 14.4-44.8 1.6-12.8-11.2-14.4-32-1.6-44.8l240-267.2h-624l238.4 268.8c11.2 12.8 11.2 33.6-3.2 44.8-12.8 11.2-33.6 11.2-44.8-3.2l-276.8-308.8h-17.6c0 0 0 0 0 0h-65.6c-17.6 0-32-14.4-32-32s14.4-32 32-32h38.4l89.6-454.4c3.2-14.4 16-25.6 32-25.6h286.4c48-94.4 145.6-160 257.6-160 158.4 0 288 129.6 288 288 0 84.8-38.4 161.6-97.6 214.4l27.2 137.6h38.4zM960 224c0-123.2-100.8-224-224-224s-224 100.8-224 224 100.8 224 224 224 224-100.8 224-224zM736 512c-158.4 0-288-129.6-288-288 0-22.4 3.2-43.2 8-64h-236.8l-83.2 416h753.6l-19.2-97.6c-40 20.8-86.4 33.6-134.4 33.6z" />
<glyph unicode="&#xe63a;" glyph-name="basket-lock-f" horiz-adv-x="960" d="M928 632h-81.6l-262.4 292.8c-11.2 12.8-32 14.4-44.8 3.2s-14.4-32-3.2-44.8l224-251.2h-560l224 251.2c11.2 12.8 11.2 32-3.2 44.8-12.8 11.2-33.6 11.2-44.8-3.2l-260.8-292.8h-83.2c-17.6 0-32-14.4-32-32s14.4-32 32-32h896c17.6 0 32 14.4 32 32s-14.4 32-32 32zM896 216v160c0 70.4-57.6 128-128 128s-128-57.6-128-128v-160h-64v-256h384v256h-64zM800 56c0-17.6-14.4-32-32-32s-32 14.4-32 32v64c0 17.6 14.4 32 32 32s32-14.4 32-32v-64zM832 216h-128v160c0 35.2 28.8 64 64 64s64-28.8 64-64v-160zM512 216v64h64v96c0 49.6 19.2 92.8 49.6 128h-540.8l76.8-384h352v96z" />
<glyph unicode="&#xe63b;" glyph-name="basket-lock" d="M800 32c17.6 0 32 14.4 32 32v64c0 17.6-14.4 32-32 32s-32-14.4-32-32v-64c0-17.6 14.4-32 32-32zM953.6 576h38.4c17.6 0 32 14.4 32 32s-14.4 32-32 32h-64c0 0 0 0 0 0h-17.6l-278.4 308.8c-11.2 12.8-32 14.4-44.8 1.6-12.8-11.2-14.4-32-1.6-44.8l240-267.2h-624l238.4 268.8c11.2 12.8 11.2 33.6-3.2 44.8-12.8 11.2-33.6 11.2-44.8-3.2l-276.8-308.8h-17.6c0 0 0 0 0 0h-65.6c-17.6 0-32-14.4-32-32s14.4-32 32-32h38.4l89.6-454.4c3.2-14.4 16-25.6 32-25.6h384v-160h448v320h-96v128c0 12.8-1.6 24-4.8 35.2 0 0 0 0 0 1.6l30.4 155.2zM219.2 160l-83.2 416h753.6l-17.6-86.4c-20.8 14.4-44.8 22.4-72 22.4-70.4 0-128-57.6-128-128v-128h-96v-96h-356.8zM960 0h-320v192h320v-192zM736 256v128c0 35.2 28.8 64 64 64s64-28.8 64-64v-128h-128z" />
<glyph unicode="&#xe63c;" glyph-name="basket-map-pin-f" horiz-adv-x="960" d="M928 632h-81.6l-262.4 292.8c-11.2 12.8-32 14.4-44.8 3.2s-14.4-32-3.2-44.8l224-251.2h-560l224 251.2c11.2 12.8 11.2 33.6-3.2 44.8-12.8 11.2-33.6 11.2-44.8-3.2l-260.8-292.8h-83.2c-17.6 0-32-14.4-32-32s14.4-32 32-32h896c17.6 0 32 14.4 32 32s-14.4 32-32 32zM768 504c-105.6 0-192-86.4-192-192 0-8 0-16 1.6-24 17.6-158.4 190.4-328 190.4-328s172.8 169.6 190.4 328c1.6 8 1.6 16 1.6 24 0 105.6-86.4 192-192 192zM768 264c-27.2 0-48 20.8-48 48s20.8 48 48 48 48-20.8 48-48c0-27.2-20.8-48-48-48zM513.6 280c-1.6 11.2-1.6 22.4-1.6 32 0 76.8 33.6 145.6 88 192h-515.2l76.8-384h408c-27.2 49.6-49.6 105.6-56 160z" />
<glyph unicode="&#xe63d;" glyph-name="basket-map-pin" d="M800 384c-35.2 0-64-28.8-64-64s28.8-64 64-64 64 28.8 64 64-28.8 64-64 64zM992 576c17.6 0 32 14.4 32 32s-14.4 32-32 32h-81.6l-278.4 308.8c-11.2 12.8-32 14.4-44.8 1.6-12.8-11.2-14.4-32-1.6-44.8l240-267.2h-624l238.4 268.8c11.2 12.8 11.2 33.6-3.2 44.8-12.8 11.2-33.6 11.2-44.8-3.2l-276.8-308.8h-17.6c0 0 0 0 0 0h-65.6c-17.6 0-32-14.4-32-32s14.4-32 32-32h38.4l89.6-454.4c3.2-14.4 16-25.6 32-25.6h464c54.4-84.8 116.8-147.2 121.6-150.4 6.4-6.4 14.4-9.6 22.4-9.6s16 3.2 22.4 9.6c8 8 180.8 179.2 200 347.2 1.6 9.6 1.6 19.2 1.6 27.2 0 72-33.6 136-86.4 176l16 80h38.4zM960 320c0-6.4 0-12.8-1.6-20.8 0 0 0 0 0 0-12.8-112-112-233.6-158.4-284.8-46.4 51.2-145.6 172.8-158.4 284.8-1.6 8-1.6 14.4-1.6 20.8 0 88 72 160 160 160s160-72 160-160zM800 544c-123.2 0-224-100.8-224-224 0-8 0-17.6 1.6-27.2 4.8-44.8 20.8-89.6 41.6-132.8h-400l-83.2 416h753.6l-9.6-46.4c-25.6 9.6-52.8 14.4-80 14.4z" />
<glyph unicode="&#xe63e;" glyph-name="basket-minus-f" horiz-adv-x="960" d="M889.6 568v0h38.4c17.6 0 32 14.4 32 32s-14.4 32-32 32h-81.6l-262.4 292.8c-11.2 12.8-32 14.4-44.8 3.2s-14.4-32-3.2-44.8l224-251.2h-560l224 251.2c11.2 12.8 11.2 33.6-3.2 44.8-12.8 11.2-33.6 11.2-44.8-3.2l-260.8-292.8h-83.2c-17.6 0-32-14.4-32-32s14.4-32 32-32h857.6zM876.8 504h-33.6c11.2-4.8 20.8-11.2 30.4-17.6l3.2 17.6zM564.8 504h-480l76.8-384h238.4c-9.6 30.4-14.4 62.4-14.4 96-1.6 126.4 72 236.8 179.2 288zM704 472c-140.8 0-256-115.2-256-256s115.2-256 256-256c140.8 0 256 115.2 256 256s-115.2 256-256 256zM832 184h-256c-17.6 0-32 14.4-32 32s14.4 32 32 32h256c17.6 0 32-14.4 32-32s-14.4-32-32-32z" />
<glyph unicode="&#xe63f;" glyph-name="basket-minus" d="M864 256h-256c-17.6 0-32-14.4-32-32s14.4-32 32-32h256c17.6 0 32 14.4 32 32s-14.4 32-32 32zM992 576c17.6 0 32 14.4 32 32s-14.4 32-32 32h-64c0 0 0 0 0 0h-17.6l-278.4 308.8c-11.2 12.8-32 14.4-44.8 1.6-12.8-11.2-14.4-32-1.6-44.8l240-267.2h-624l238.4 268.8c11.2 12.8 11.2 33.6-3.2 44.8-12.8 11.2-33.6 11.2-44.8-3.2l-276.8-308.8h-17.6c0 0 0 0 0 0h-65.6c-17.6 0-32-14.4-32-32s14.4-32 32-32h38.4l89.6-454.4c3.2-14.4 16-25.6 32-25.6h286.4c48-94.4 145.6-160 257.6-160 158.4 0 288 129.6 288 288 0 84.8-38.4 161.6-97.6 214.4l27.2 137.6h38.4zM960 224c0-123.2-100.8-224-224-224s-224 100.8-224 224 100.8 224 224 224 224-100.8 224-224zM736 512c-158.4 0-288-129.6-288-288 0-22.4 3.2-43.2 8-64h-236.8l-83.2 416h753.6l-19.2-97.6c-41.6 20.8-86.4 33.6-134.4 33.6z" />
<glyph unicode="&#xe640;" glyph-name="basket-money-f" horiz-adv-x="960" d="M160-16h640l76.8 384h-792zM928 496h-248c35.2 43.2 56 99.2 56 160 0 140.8-115.2 256-256 256s-256-115.2-256-256c0-60.8 20.8-116.8 56-160h-248c-17.6 0-32-14.4-32-32s14.4-32 32-32h896c17.6 0 32 14.4 32 32s-14.4 32-32 32zM448 496v12.8c-46.4 12.8-75.2 51.2-80 89.6-1.6 17.6 9.6 33.6 27.2 35.2s33.6-9.6 35.2-27.2c1.6-14.4 14.4-36.8 48-36.8 8 0 48 1.6 48 25.6 0 8 0 19.2-49.6 35.2-54.4 17.6-102.4 33.6-102.4 92.8 0 40 30.4 72 73.6 81.6v11.2c0 17.6 14.4 32 32 32s32-14.4 32-32v-12.8c36.8-9.6 64-36.8 75.2-78.4 4.8-17.6-4.8-35.2-22.4-40s-35.2 4.8-40 22.4c-8 25.6-20.8 36.8-46.4 36.8-22.4 0-41.6-9.6-41.6-22.4 0-9.6 0-12.8 59.2-32 30.4-9.6 94.4-30.4 94.4-96 0-36.8-25.6-75.2-80-86.4v-11.2c0 0 0 0 0 0h-62.4c0 0 0 0 0 0z" />
<glyph unicode="&#xe641;" glyph-name="basket-money" d="M32 432h38.4l89.6-454.4c3.2-14.4 16-25.6 32-25.6h640c16 0 28.8 11.2 32 25.6l89.6 454.4h38.4c17.6 0 32 14.4 32 32s-14.4 32-32 32h-64c0 0 0 0 0 0h-176c32 46.4 49.6 102.4 49.6 160 0 158.4-129.6 288-288 288s-289.6-129.6-289.6-288c0-57.6 17.6-113.6 49.6-160h-176c0 0 0 0 0 0h-65.6c-17.6 0-32-14.4-32-32s14.4-32 32-32zM806.4 16h-587.2l-83.2 416h753.6l-83.2-416zM288 656c0 123.2 100.8 224 224 224s224-100.8 224-224c0-60.8-24-118.4-67.2-160h-124.8v11.2c54.4 11.2 80 48 80 86.4 0 65.6-64 86.4-94.4 96-59.2 19.2-59.2 22.4-59.2 32 0 11.2 19.2 22.4 41.6 22.4 24 0 38.4-11.2 46.4-36.8 4.8-17.6 22.4-27.2 40-22.4s27.2 22.4 22.4 40c-12.8 41.6-38.4 68.8-75.2 78.4v12.8c0 17.6-14.4 32-32 32s-32-14.4-32-32v-11.2c-43.2-11.2-73.6-43.2-73.6-81.6 0-59.2 48-75.2 102.4-92.8 49.6-16 49.6-27.2 49.6-35.2 0-24-40-25.6-48-25.6-35.2 0-46.4 24-48 36.8-1.6 17.6-17.6 30.4-35.2 27.2-17.6-1.6-30.4-17.6-27.2-35.2 4.8-38.4 33.6-76.8 80-89.6v-12.8h-124.8c-44.8 41.6-68.8 99.2-68.8 160z" />
<glyph unicode="&#xe642;" glyph-name="basket-phone-f" horiz-adv-x="960" d="M928 616h-81.6l-262.4 292.8c-11.2 12.8-32 14.4-44.8 3.2s-14.4-32-3.2-44.8l224-251.2h-560l224 251.2c11.2 12.8 11.2 33.6-3.2 44.8-12.8 11.2-33.6 11.2-44.8-3.2l-260.8-292.8h-83.2c-17.6 0-32-14.4-32-32s14.4-32 32-32h896c17.6 0 32 14.4 32 32s-14.4 32-32 32zM852.8 150.4c-9.6 6.4-33.6 12.8-52.8-9.6-19.2-24-27.2-54.4-115.2 33.6s-64 104-41.6 123.2c24 19.2 16 43.2 9.6 52.8s-48 72-54.4 83.2c-6.4 11.2-17.6 27.2-40 24-16-1.6-80-36.8-80-108.8s56-160 134.4-236.8c76.8-76.8 164.8-134.4 236.8-134.4s105.6 64 108.8 80c3.2 22.4-14.4 32-24 40-9.6 4.8-72 46.4-81.6 52.8zM651.2 468.8l1.6-1.6c4.8-8 22.4-33.6 41.6-62.4 6.4-9.6 11.2-17.6 14.4-20.8 22.4-35.2 25.6-88-11.2-126.4 6.4-8 17.6-20.8 35.2-38.4 12.8-12.8 22.4-20.8 28.8-27.2 17.6 17.6 40 27.2 62.4 28.8l54.4 268.8h-240c4.8-9.6 9.6-16 12.8-20.8zM416 347.2c0 65.6 33.6 112 70.4 140.8h-401.6l76.8-384h371.2c-54.4 62.4-116.8 152-116.8 243.2z" />
<glyph unicode="&#xe643;" glyph-name="basket-phone" d="M436.8 936c-12.8 11.2-33.6 11.2-44.8-3.2l-276.8-308.8h-17.6c0 0 0 0 0 0h-65.6c-17.6 0-32-14.4-32-32s14.4-32 32-32h38.4l89.6-454.4c3.2-14.4 16-25.6 32-25.6h448c56-54.4 152-128 244.8-128 88 0 134.4 76.8 139.2 107.2 6.4 41.6-24 60.8-35.2 68.8l-1.6 1.6c-8 4.8-43.2 28.8-65.6 43.2l-17.6 11.2c-6.4 4.8-14.4 8-22.4 9.6l72 366.4h38.4c17.6 0 32 14.4 32 32s-14.4 32-32 32h-64c0 0 0 0 0 0h-17.6l-278.4 308.8c-11.2 12.8-32 14.4-44.8 1.6-12.8-11.2-14.4-32-1.6-44.8l240-267.2h-624l238.4 268.8c11.2 12.8 11.2 33.6-3.2 44.8zM136 560h752l-80-390.4c0 0-1.6-1.6-1.6-1.6-1.6-3.2-3.2-4.8-6.4-8-1.6-1.6-1.6-3.2-3.2-4.8-6.4 3.2-24 12.8-57.6 48-43.2 43.2-51.2 62.4-52.8 67.2 1.6 1.6 4.8 4.8 8 6.4l1.6 1.6c33.6 27.2 33.6 68.8 17.6 94.4l-14.4 22.4c-14.4 22.4-35.2 54.4-40 60.8l-3.2 3.2c-8 11.2-28.8 41.6-68.8 35.2-32-4.8-107.2-51.2-107.2-139.2 0-76.8 51.2-155.2 99.2-211.2h-360l-83.2 416zM948.8 76.8l1.6-1.6c3.2-1.6 8-4.8 8-6.4 0 0-19.2-54.4-76.8-54.4-56 0-136 46.4-214.4 124.8s-124.8 158.4-124.8 214.4c0 56 52.8 76.8 52.8 76.8 1.6-1.6 4.8-6.4 6.4-8l1.6-3.2c4.8-6.4 24-38.4 40-59.2l14.4-22.4c3.2-4.8-1.6-8-3.2-9.6l-1.6-1.6c-12.8-9.6-30.4-24-32-51.2-1.6-30.4 19.2-64 72-116.8 51.2-51.2 81.6-70.4 110.4-67.2 25.6 1.6 40 20.8 48 32 1.6 1.6 3.2 3.2 4.8 4.8 0 0 1.6 1.6 1.6 1.6s0 0 0 0c1.6 1.6 4.8 3.2 8 1.6l17.6-11.2c24-14.4 59.2-36.8 65.6-43.2z" />
<glyph unicode="&#xe644;" glyph-name="basket-plus-f" horiz-adv-x="960" d="M928 632h-81.6l-262.4 292.8c-11.2 12.8-32 14.4-44.8 3.2s-14.4-32-3.2-44.8l224-251.2h-560l224 251.2c11.2 12.8 11.2 33.6-3.2 44.8-12.8 11.2-33.6 11.2-44.8-3.2l-260.8-292.8h-83.2c-17.6 0-32-14.4-32-32s14.4-32 32-32h896c17.6 0 32 14.4 32 32s-14.4 32-32 32zM704 472c-140.8 0-256-115.2-256-256s115.2-256 256-256c140.8 0 256 115.2 256 256s-115.2 256-256 256zM832 184h-96v-96c0-17.6-14.4-32-32-32s-32 14.4-32 32v96h-96c-17.6 0-32 14.4-32 32s14.4 32 32 32h96v96c0 17.6 14.4 32 32 32s32-14.4 32-32v-96h96c17.6 0 32-14.4 32-32s-14.4-32-32-32zM873.6 486.4l3.2 17.6h-33.6c9.6-4.8 20.8-11.2 30.4-17.6zM384 216c0 126.4 73.6 236.8 180.8 288h-480l76.8-384h238.4c-11.2 30.4-16 62.4-16 96z" />
<glyph unicode="&#xe645;" glyph-name="basket-plus" d="M864 256h-96v96c0 17.6-14.4 32-32 32s-32-14.4-32-32v-96h-96c-17.6 0-32-14.4-32-32s14.4-32 32-32h96v-96c0-17.6 14.4-32 32-32s32 14.4 32 32v96h96c17.6 0 32 14.4 32 32s-14.4 32-32 32zM992 576c17.6 0 32 14.4 32 32s-14.4 32-32 32h-64c0 0 0 0 0 0h-17.6l-278.4 308.8c-11.2 12.8-32 14.4-44.8 1.6s-14.4-32-1.6-44.8l240-267.2h-624l238.4 268.8c11.2 12.8 11.2 33.6-3.2 44.8-12.8 11.2-33.6 11.2-44.8-3.2l-276.8-308.8h-17.6c0 0 0 0 0 0h-65.6c-17.6 0-32-14.4-32-32s14.4-32 32-32h38.4l89.6-454.4c3.2-14.4 16-25.6 32-25.6h286.4c48-94.4 145.6-160 257.6-160 158.4 0 288 129.6 288 288 0 84.8-38.4 161.6-97.6 214.4l27.2 137.6h38.4zM960 224c0-123.2-100.8-224-224-224s-224 100.8-224 224 100.8 224 224 224 224-100.8 224-224zM736 512c-158.4 0-288-129.6-288-288 0-22.4 3.2-43.2 8-64h-236.8l-83.2 416h753.6l-19.2-97.6c-41.6 20.8-86.4 33.6-134.4 33.6z" />
<glyph unicode="&#xe646;" glyph-name="basket-refresh-f" horiz-adv-x="992" d="M928 648h-81.6l-262.4 292.8c-11.2 12.8-32 14.4-44.8 3.2s-14.4-32-3.2-44.8l224-251.2h-560l224 251.2c11.2 12.8 11.2 32-3.2 44.8-12.8 11.2-33.6 11.2-44.8-3.2l-260.8-292.8h-83.2c-17.6 0-32-14.4-32-32s14.4-32 32-32h896c17.6 0 32 14.4 32 32s-14.4 32-32 32zM982.4 190.4c-12.8 12.8-33.6 12.8-44.8 0l-24-24c0 59.2-22.4 116.8-64 160-68.8 70.4-177.6 86.4-262.4 38.4-16-8-20.8-27.2-12.8-43.2s27.2-20.8 43.2-12.8c60.8 33.6 137.6 22.4 187.2-27.2 28.8-30.4 44.8-70.4 46.4-110.4l-19.2 19.2c-12.8 12.8-32 12.8-44.8 0s-12.8-32 0-44.8l99.2-100.8 99.2 100.8c9.6 12.8 9.6 32-3.2 44.8zM444.8 145.6l24 24c0-59.2 22.4-116.8 64-160 43.2-43.2 99.2-65.6 158.4-65.6 36.8 0 72 8 105.6 27.2 16 8 20.8 27.2 12.8 43.2s-27.2 20.8-43.2 12.8c-60.8-33.6-137.6-22.4-187.2 27.2-28.8 30.4-44.8 70.4-46.4 110.4l19.2-19.2c6.4-6.4 14.4-9.6 22.4-9.6s16 3.2 22.4 9.6c12.8 12.8 12.8 32 0 44.8l-99.2 100.8-97.6-100.8c-12.8-12.8-12.8-33.6 0-44.8 12.8-12.8 32-12.8 44.8 0zM600 305.6c0 0 0 0 0 0 1.6 0 1.6 0 3.2 0-1.6 0-3.2 0-3.2 0zM326.4 168c0 25.6 9.6 49.6 27.2 68.8l99.2 100.8c12.8 12.8 28.8 19.2 44.8 19.2 3.2 0 4.8 0 6.4 0 0 3.2 1.6 6.4 1.6 9.6 8 24 24 44.8 46.4 57.6 41.6 22.4 88 35.2 136 35.2 59.2 0 115.2-17.6 163.2-51.2l22.4 115.2h-788.8l76.8-384h171.2c-4.8 6.4-6.4 17.6-6.4 28.8zM419.2 136c1.6 0 1.6 0 3.2 0 0 0 0 0 0 0-1.6 0-3.2 0-3.2 0zM689.6 392c1.6 0 3.2 0 4.8 0-1.6 0-3.2 0-4.8 0 0 0 0 0 0 0zM806.4 200c-1.6 0-3.2 0-3.2 0s1.6 0 3.2 0v0z" />
<glyph unicode="&#xe647;" glyph-name="basket-refresh" d="M608 128c8 0 16 3.2 22.4 9.6 12.8 12.8 12.8 32 0 44.8l-99.2 100.8-99.2-100.8c-12.8-12.8-12.8-33.6 0-44.8 12.8-12.8 33.6-12.8 44.8 0l24 24c0-59.2 22.4-116.8 64-160 43.2-43.2 99.2-65.6 158.4-65.6 36.8 0 72 8 105.6 27.2 16 8 20.8 27.2 12.8 43.2s-27.2 20.8-43.2 12.8c-60.8-33.6-137.6-22.4-187.2 27.2-28.8 30.4-44.8 70.4-46.4 110.4l19.2-19.2c8-6.4 16-9.6 24-9.6zM992 576c17.6 0 32 14.4 32 32s-14.4 32-32 32h-64c0 0 0 0 0 0h-17.6l-278.4 308.8c-11.2 12.8-32 14.4-44.8 1.6-12.8-11.2-14.4-32-1.6-44.8l240-267.2h-624l238.4 268.8c11.2 12.8 11.2 33.6-3.2 44.8-12.8 11.2-33.6 11.2-44.8-3.2l-276.8-308.8h-17.6c0 0 0 0 0 0h-65.6c-17.6 0-32-14.4-32-32s14.4-32 32-32h38.4l89.6-454.4c3.2-14.4 16-25.6 32-25.6h160c17.6 0 32 14.4 32 32s-14.4 32-32 32h-132.8l-83.2 416h752l-46.4-227.2c-67.2 43.2-153.6 48-225.6 8-16-8-20.8-27.2-12.8-43.2s27.2-20.8 43.2-12.8c60.8 33.6 137.6 22.4 187.2-27.2 28.8-30.4 44.8-70.4 46.4-110.4l-19.2 19.2c-12.8 12.8-32 12.8-44.8 0s-12.8-32 0-44.8l99.2-100.8 99.2 100.8c12.8 12.8 12.8 33.6 0 44.8-12.8 12.8-33.6 12.8-44.8 0l-24-24c0 51.2-16 100.8-48 140.8l56 276.8h38.4z" />
<glyph unicode="&#xe648;" glyph-name="basket-reload-f" horiz-adv-x="992" d="M928 648h-81.6l-262.4 292.8c-11.2 12.8-32 14.4-44.8 3.2s-14.4-32-3.2-44.8l224-251.2h-560l224 251.2c11.2 12.8 11.2 33.6-3.2 44.8-12.8 11.2-33.6 11.2-44.8-3.2l-260.8-292.8h-83.2c-17.6 0-32-14.4-32-32s14.4-32 32-32h896c17.6 0 32 14.4 32 32s-14.4 32-32 32zM982.4 190.4c-12.8 12.8-33.6 12.8-44.8 0l-20.8-20.8c-1.6 123.2-99.2 222.4-219.2 222.4s-219.2-100.8-219.2-224 97.6-224 219.2-224c17.6 0 32 14.4 32 32s-14.4 32-32 32c-84.8 0-155.2 72-155.2 160s68.8 160 155.2 160c84.8 0 155.2-72 155.2-160 0 0 0-1.6 0-1.6l-24 24c-12.8 12.8-32 12.8-44.8 0s-12.8-32 0-44.8l99.2-100.8 99.2 100.8c12.8 12.8 12.8 32 0 44.8zM416 168c0 158.4 126.4 288 283.2 288 57.6 0 110.4-17.6 155.2-48l22.4 112h-792l76.8-384h257.6c-3.2 11.2-3.2 20.8-3.2 32zM803.2 200c1.6 0 3.2 0 4.8 0v0c-3.2 0-4.8 0-4.8 0z" />
<glyph unicode="&#xe649;" glyph-name="basket-reload" d="M969.6 182.4l-20.8-20.8c0 54.4-19.2 104-51.2 142.4l56 272h38.4c17.6 0 32 14.4 32 32s-14.4 32-32 32h-64c0 0 0 0 0 0h-17.6l-278.4 308.8c-11.2 12.8-32 14.4-44.8 1.6-12.8-11.2-14.4-32-1.6-44.8l240-267.2h-624l238.4 268.8c11.2 12.8 11.2 33.6-3.2 44.8-12.8 11.2-33.6 11.2-44.8-3.2l-276.8-308.8h-17.6c0 0 0 0 0 0h-65.6c-17.6 0-32-14.4-32-32s14.4-32 32-32h38.4l89.6-454.4c3.2-14.4 16-25.6 32-25.6h329.6c27.2-92.8 110.4-160 209.6-160 17.6 0 32 14.4 32 32s-14.4 32-32 32c-84.8 0-155.2 72-155.2 160s68.8 160 155.2 160c84.8 0 155.2-72 155.2-160 0 0 0-1.6 0-1.6l-24 24c-12.8 12.8-32 12.8-44.8 0s-12.8-32 0-44.8l99.2-100.8 99.2 100.8c12.8 12.8 12.8 33.6 0 44.8-14.4 12.8-33.6 12.8-46.4 0zM512 160h-292.8l-83.2 416h752l-46.4-224c-32 20.8-70.4 32-112 32-120 0-217.6-100.8-217.6-224z" />
<glyph unicode="&#xe64a;" glyph-name="basket-remove-f" horiz-adv-x="960" d="M928 632h-81.6l-262.4 292.8c-11.2 12.8-32 14.4-44.8 3.2s-14.4-32-3.2-44.8l224-251.2h-560l224 251.2c11.2 12.8 11.2 33.6-3.2 44.8-12.8 11.2-33.6 11.2-44.8-3.2l-260.8-292.8h-83.2c-17.6 0-32-14.4-32-32s14.4-32 32-32h896c17.6 0 32 14.4 32 32s-14.4 32-32 32zM523.2 396.8c-99.2-99.2-99.2-262.4 0-361.6 99.2-100.8 262.4-99.2 361.6 0s99.2 262.4 0 361.6c-99.2 100.8-262.4 100.8-361.6 0zM817.6 283.2l-67.2-67.2 67.2-67.2c12.8-12.8 12.8-32 0-44.8s-32-12.8-44.8 0l-68.8 67.2-67.2-67.2c-12.8-12.8-32-12.8-44.8 0s-12.8 32 0 44.8l67.2 67.2-67.2 67.2c-12.8 12.8-12.8 32 0 44.8s32 12.8 44.8 0l67.2-67.2 67.2 67.2c12.8 12.8 32 12.8 44.8 0 14.4-11.2 14.4-32 1.6-44.8zM873.6 486.4l3.2 17.6h-33.6c9.6-4.8 20.8-11.2 30.4-17.6zM384 216c0 126.4 73.6 236.8 180.8 288h-480l76.8-384h238.4c-11.2 30.4-16 62.4-16 96z" />
<glyph unicode="&#xe64b;" glyph-name="basket-remove" d="M854.4 342.4c-12.8 12.8-32 12.8-44.8 0l-73.6-73.6-73.6 73.6c-12.8 12.8-32 12.8-44.8 0s-12.8-32 0-44.8l73.6-73.6-73.6-73.6c-12.8-12.8-12.8-32 0-44.8 6.4-6.4 14.4-9.6 22.4-9.6s16 3.2 22.4 9.6l73.6 73.6 73.6-73.6c6.4-6.4 14.4-9.6 22.4-9.6s16 3.2 22.4 9.6c12.8 12.8 12.8 32 0 44.8l-73.6 73.6 73.6 73.6c12.8 12.8 12.8 32 0 44.8zM992 576c17.6 0 32 14.4 32 32s-14.4 32-32 32h-64c0 0 0 0 0 0h-17.6l-278.4 308.8c-11.2 12.8-32 14.4-44.8 1.6-12.8-11.2-14.4-32-1.6-44.8l240-267.2h-624l238.4 268.8c11.2 12.8 11.2 33.6-3.2 44.8-12.8 11.2-33.6 11.2-44.8-3.2l-276.8-308.8h-17.6c0 0 0 0 0 0h-65.6c-17.6 0-32-14.4-32-32s14.4-32 32-32h38.4l89.6-454.4c3.2-14.4 16-25.6 32-25.6h286.4c48-94.4 145.6-160 257.6-160 158.4 0 288 129.6 288 288 0 84.8-38.4 161.6-97.6 214.4l27.2 137.6h38.4zM960 224c0-123.2-100.8-224-224-224s-224 100.8-224 224 100.8 224 224 224 224-100.8 224-224zM736 512c-158.4 0-288-129.6-288-288 0-22.4 3.2-43.2 8-64h-236.8l-83.2 416h753.6l-19.2-97.6c-41.6 20.8-86.4 33.6-134.4 33.6z" />
<glyph unicode="&#xe64c;" glyph-name="basket-search-f" horiz-adv-x="992" d="M928 648h-81.6l-262.4 292.8c-11.2 12.8-32 14.4-44.8 3.2s-14.4-32-3.2-44.8l224-251.2h-560l224 251.2c11.2 12.8 9.6 32-3.2 44.8-12.8 11.2-33.6 11.2-44.8-3.2l-260.8-292.8h-83.2c-17.6 0-32-14.4-32-32s14.4-32 32-32h896c17.6 0 32 14.4 32 32s-14.4 32-32 32zM982.4-1.6l-121.6 121.6c22.4 32 35.2 68.8 35.2 110.4 0 105.6-86.4 192-192 192s-192-86.4-192-192c0-105.6 86.4-192 192-192 41.6 0 80 12.8 112 35.2l121.6-121.6c6.4-6.4 14.4-9.6 22.4-9.6s16 3.2 22.4 9.6c12.8 14.4 12.8 35.2 0 46.4zM576 232c0 70.4 57.6 128 128 128s128-57.6 128-128c0-70.4-57.6-128-128-128s-128 57.6-128 128zM448 232c0 140.8 115.2 256 256 256 59.2 0 112-20.8 155.2-52.8l17.6 84.8h-793.6l76.8-384h307.2c-12.8 28.8-19.2 62.4-19.2 96z" />
<glyph unicode="&#xe64d;" glyph-name="basket-search" d="M32 576h38.4l89.6-454.4c3.2-14.4 16-25.6 32-25.6h401.6c35.2-38.4 86.4-64 142.4-64 41.6 0 80 12.8 112 35.2l121.6-121.6c6.4-6.4 14.4-9.6 22.4-9.6s16 3.2 22.4 9.6c12.8 12.8 12.8 32 0 44.8l-121.6 121.6c22.4 32 35.2 68.8 35.2 110.4 0 33.6-8 65.6-24 92.8l49.6 260.8h38.4c17.6 0 32 14.4 32 32s-14.4 32-32 32h-64c0 0 0 0 0 0h-17.6l-278.4 308.8c-11.2 12.8-32 14.4-44.8 1.6s-14.4-32-1.6-44.8l240-267.2h-624l238.4 268.8c11.2 12.8 11.2 33.6-3.2 44.8s-33.6 11.2-44.8-3.2l-276.8-308.8h-17.6c0 0 0 0 0 0h-65.6c-17.6 0-32-14.4-32-32s14.4-32 32-32zM219.2 160l-83.2 416h753.6l-38.4-198.4c-32 24-72 38.4-115.2 38.4-105.6 0-192-86.4-192-192 0-22.4 4.8-43.2 11.2-64h-336zM608 224c0 70.4 57.6 128 128 128s128-57.6 128-128-57.6-128-128-128-128 57.6-128 128z" />
<glyph unicode="&#xe64e;" glyph-name="basket-shield-f" horiz-adv-x="960" d="M928 632h-81.6l-262.4 292.8c-11.2 12.8-32 14.4-44.8 3.2s-14.4-32-3.2-44.8l224-251.2h-560l224 251.2c11.2 12.8 9.6 33.6-3.2 44.8s-33.6 11.2-44.8-3.2l-260.8-292.8h-83.2c-17.6 0-32-14.4-32-32s14.4-32 32-32h896c17.6 0 32 14.4 32 32s-14.4 32-32 32zM512 472c0 0 0-124.8 0-188.8 0-102.4 59.2-256 224-323.2 163.2 67.2 224 220.8 224 323.2 0 88 0 188.8 0 188.8h-448zM880 296l-160-160-100.8 100.8c-12.8 12.8-12.8 32 0 44.8s32 12.8 44.8 0l54.4-54.4 115.2 115.2c12.8 12.8 32 12.8 44.8 0 12.8-14.4 12.8-33.6 1.6-46.4zM664 281.6c-12.8 12.8-32 12.8-44.8 0 6.4 6.4 14.4 9.6 22.4 9.6s16-3.2 22.4-9.6zM448 283.2v220.8h-364.8l76.8-384h324.8c-24 54.4-36.8 112-36.8 163.2z" />
<glyph unicode="&#xe64f;" glyph-name="basket-shield" d="M865.6 348.8l-115.2-115.2-54.4 54.4c-12.8 12.8-32 12.8-44.8 0s-12.8-32 0-44.8l100.8-100.8 160 160c12.8 12.8 12.8 32 0 44.8s-33.6 14.4-46.4 1.6zM953.6 576h38.4c17.6 0 32 14.4 32 32s-14.4 32-32 32h-64c0 0 0 0 0 0h-17.6l-278.4 308.8c-11.2 12.8-32 14.4-44.8 1.6-12.8-11.2-14.4-32-1.6-44.8l240-267.2h-624l238.4 268.8c11.2 12.8 11.2 33.6-3.2 44.8-12.8 11.2-33.6 11.2-44.8-3.2l-276.8-308.8h-17.6c0 0 0 0 0 0h-65.6c-17.6 0-32-14.4-32-32s14.4-32 32-32h38.4l89.6-454.4c3.2-14.4 16-25.6 32-25.6h377.6c40-64 100.8-123.2 185.6-156.8l12.8-4.8 12.8 4.8c168 67.2 243.2 225.6 243.2 352v220.8h-83.2l12.8 64zM219.2 160l-83.2 416h752l-12.8-64h-363.2v-220.8c0-41.6 8-88 25.6-131.2h-318.4zM960 291.2c0-76.8-41.6-220.8-192-289.6-150.4 68.8-192 212.8-192 289.6v156.8h384v-156.8z" />
<glyph unicode="&#xe650;" glyph-name="basket-star-f" horiz-adv-x="960" d="M928 632h-81.6l-262.4 292.8c-11.2 12.8-32 14.4-44.8 3.2s-14.4-32-3.2-44.8l224-251.2h-560l224 251.2c11.2 12.8 11.2 33.6-3.2 44.8-12.8 11.2-33.6 11.2-44.8-3.2l-260.8-292.8h-83.2c-17.6 0-32-14.4-32-32s14.4-32 32-32h896c17.6 0 32 14.4 32 32s-14.4 32-32 32zM704 73.6l-158.4-113.6 60.8 184-158.4 104h195.2l60.8 192 60.8-192h195.2l-158.4-104 60.8-184zM764.8 459.2l46.4-147.2h27.2l38.4 192h-172.8c28.8 0 52.8-17.6 60.8-44.8zM412.8 195.2c-24 16-33.6 44.8-25.6 72s33.6 46.4 60.8 46.4h148.8l46.4 147.2c8 27.2 33.6 44.8 60.8 44.8h-619.2l76.8-384h366.4l-115.2 73.6z" />
<glyph unicode="&#xe651;" glyph-name="basket-star" d="M992 576c17.6 0 32 14.4 32 32s-14.4 32-32 32h-64c0 0 0 0 0 0h-17.6l-278.4 308.8c-11.2 12.8-32 14.4-44.8 1.6-12.8-11.2-14.4-32-1.6-44.8l240-267.2h-624l238.4 268.8c11.2 12.8 11.2 33.6-3.2 44.8-12.8 11.2-33.6 11.2-44.8-3.2l-276.8-308.8h-17.6c0 0 0 0 0 0h-65.6c-17.6 0-32-14.4-32-32s14.4-32 32-32h38.4l89.6-454.4c3.2-14.4 16-25.6 32-25.6h393.6l-38.4-118.4c-4.8-12.8 0-27.2 11.2-35.2s25.6-8 38.4 0l139.2 100.8 139.2-100.8c4.8-4.8 12.8-6.4 19.2-6.4s12.8 1.6 19.2 6.4c11.2 8 16 22.4 11.2 35.2l-52.8 160 137.6 91.2c11.2 8 17.6 22.4 12.8 35.2s-16 22.4-30.4 22.4h-96l57.6 288h38.4zM816 177.6c-12.8-8-17.6-22.4-12.8-36.8l30.4-89.6-78.4 56c-4.8 4.8-12.8 6.4-19.2 6.4s-12.8-1.6-19.2-6.4l-76.8-56 30.4 89.6c4.8 14.4 0 28.8-12.8 36.8l-70.4 46.4h89.6c14.4 0 25.6 9.6 30.4 22.4l28.8 94.4 28.8-94.4c4.8-12.8 16-22.4 30.4-22.4h89.6l-68.8-46.4zM819.2 288l-52.8 169.6c-4.8 12.8-16 22.4-30.4 22.4s-25.6-9.6-30.4-22.4l-52.8-169.6h-172.8c-14.4 0-27.2-9.6-30.4-22.4-4.8-12.8 1.6-28.8 12.8-35.2l105.6-68.8h-348.8l-83.2 414.4h753.6l-57.6-288h-12.8z" />
<glyph unicode="&#xe652;" glyph-name="basket-time-f" horiz-adv-x="960" d="M928 632h-81.6l-262.4 292.8c-11.2 12.8-32 14.4-44.8 3.2s-14.4-32-3.2-44.8l224-251.2h-560l224 251.2c11.2 12.8 11.2 33.6-3.2 44.8-12.8 11.2-33.6 11.2-44.8-3.2l-260.8-292.8h-83.2c-17.6 0-32-14.4-32-32s14.4-32 32-32h896c17.6 0 32 14.4 32 32s-14.4 32-32 32zM704 472c-140.8 0-256-115.2-256-256s115.2-256 256-256c140.8 0 256 115.2 256 256s-115.2 256-256 256zM832 152h-160v192c0 17.6 14.4 32 32 32s32-14.4 32-32v-128h96c17.6 0 32-14.4 32-32s-14.4-32-32-32zM873.6 486.4l3.2 17.6h-35.2c11.2-4.8 22.4-11.2 32-17.6zM384 216c0 126.4 75.2 236.8 182.4 288h-481.6l76.8-384h238.4c-11.2 30.4-16 62.4-16 96z" />
<glyph unicode="&#xe653;" glyph-name="basket-time" d="M864 224h-96v128c0 17.6-14.4 32-32 32s-32-14.4-32-32v-192h160c17.6 0 32 14.4 32 32s-14.4 32-32 32zM992 576c17.6 0 32 14.4 32 32s-14.4 32-32 32h-81.6l-278.4 308.8c-11.2 12.8-32 14.4-44.8 1.6-12.8-11.2-14.4-32-1.6-44.8l240-267.2h-624l238.4 268.8c11.2 12.8 11.2 33.6-3.2 44.8-12.8 11.2-33.6 11.2-44.8-3.2l-276.8-308.8h-17.6c0 0 0 0 0 0h-65.6c-17.6 0-32-14.4-32-32s14.4-32 32-32h38.4l89.6-454.4c3.2-14.4 16-25.6 32-25.6h286.4c48-94.4 145.6-160 257.6-160 158.4 0 288 129.6 288 288 0 84.8-38.4 161.6-97.6 214.4l27.2 137.6h38.4zM960 224c0-123.2-100.8-224-224-224s-224 100.8-224 224 100.8 224 224 224 224-100.8 224-224zM736 512c-158.4 0-288-129.6-288-288 0-22.4 3.2-43.2 8-64h-238.4l-81.6 416h753.6l-19.2-97.6c-40 20.8-86.4 33.6-134.4 33.6z" />
<glyph unicode="&#xe654;" glyph-name="basket-up-f" horiz-adv-x="960" d="M889.6 568v0h38.4c17.6 0 32 14.4 32 32s-14.4 32-32 32h-81.6l-262.4 292.8c-11.2 12.8-32 14.4-44.8 3.2s-14.4-32-3.2-44.8l224-251.2h-560l224 251.2c11.2 12.8 11.2 33.6-3.2 44.8-12.8 11.2-33.6 11.2-44.8-3.2l-260.8-292.8h-83.2c-17.6 0-32-14.4-32-32s14.4-32 32-32h857.6zM876.8 504h-33.6c11.2-4.8 20.8-11.2 30.4-17.6l3.2 17.6zM564.8 504h-480l76.8-384h238.4c-9.6 30.4-14.4 62.4-14.4 96-1.6 126.4 72 236.8 179.2 288zM704-40c140.8 0 256 115.2 256 256s-115.2 256-256 256c-140.8 0-256-115.2-256-256s115.2-256 256-256zM585.6 270.4l118.4 118.4 118.4-118.4c12.8-12.8 12.8-32 0-44.8s-32-12.8-44.8 0l-41.6 41.6v-179.2c0-17.6-14.4-32-32-32s-32 14.4-32 32v179.2l-41.6-41.6c-12.8-12.8-32-12.8-44.8 0s-12.8 32 0 44.8z" />
<glyph unicode="&#xe655;" glyph-name="basket-up" d="M736 396.8l-118.4-118.4c-12.8-12.8-12.8-32 0-44.8s32-12.8 44.8 0l41.6 41.6v-179.2c0-17.6 14.4-32 32-32s32 14.4 32 32v179.2l41.6-41.6c6.4-6.4 14.4-9.6 22.4-9.6s16 3.2 22.4 9.6c12.8 12.8 12.8 32 0 44.8l-118.4 118.4zM992 576c17.6 0 32 14.4 32 32s-14.4 32-32 32h-64c0 0 0 0 0 0h-17.6l-278.4 308.8c-11.2 12.8-32 14.4-44.8 1.6-12.8-11.2-14.4-32-1.6-44.8l240-267.2h-624l238.4 268.8c11.2 12.8 11.2 33.6-3.2 44.8-12.8 11.2-33.6 11.2-44.8-3.2l-276.8-308.8h-17.6c0 0 0 0 0 0h-65.6c-17.6 0-32-14.4-32-32s14.4-32 32-32h38.4l89.6-454.4c3.2-14.4 16-25.6 32-25.6h286.4c48-94.4 145.6-160 257.6-160 158.4 0 288 129.6 288 288 0 84.8-38.4 161.6-97.6 214.4l27.2 137.6h38.4zM960 224c0-123.2-100.8-224-224-224s-224 100.8-224 224 100.8 224 224 224 224-100.8 224-224zM736 512c-158.4 0-288-129.6-288-288 0-22.4 3.2-43.2 8-64h-238.4l-81.6 416h753.6l-19.2-97.6c-40 20.8-86.4 33.6-134.4 33.6z" />
<glyph unicode="&#xe656;" glyph-name="bill-1-f" horiz-adv-x="960" d="M128 736h-128v-128c70.4 0 128 57.6 128 128zM960 608v128h-128c0-70.4 57.6-128 128-128zM0 288v-128h128c0 70.4-57.6 128-128 128zM960 352v192c-105.6 0-192 86.4-192 192h-576c0-105.6-86.4-192-192-192v-192c105.6 0 192-86.4 192-192h576c0 105.6 86.4 192 192 192zM224 416h-64c-17.6 0-32 14.4-32 32s14.4 32 32 32h64c17.6 0 32-14.4 32-32s-14.4-32-32-32zM480 320c-70.4 0-128 57.6-128 128s57.6 128 128 128c70.4 0 128-57.6 128-128s-57.6-128-128-128zM800 416h-64c-17.6 0-32 14.4-32 32s14.4 32 32 32h64c17.6 0 32-14.4 32-32s-14.4-32-32-32zM832 160h128v128c-70.4 0-128-57.6-128-128z" />
<glyph unicode="&#xe657;" glyph-name="bill-1" d="M1024 128v640h-1024v-640h1024zM64 348.8v198.4c80 12.8 144 76.8 156.8 156.8h582.4c12.8-80 76.8-144 156.8-156.8v-198.4c-80-12.8-144-76.8-156.8-156.8h-582.4c-12.8 80-76.8 144-156.8 156.8zM868.8 192c11.2 44.8 46.4 80 91.2 91.2v-91.2h-91.2zM960 612.8c-44.8 11.2-80 46.4-91.2 91.2h91.2v-91.2zM155.2 704c-11.2-44.8-46.4-80-91.2-91.2v91.2h91.2zM64 283.2c44.8-11.2 80-46.4 91.2-91.2h-91.2v91.2zM512 608c-88 0-160-72-160-160s72-160 160-160 160 72 160 160-72 160-160 160zM512 352c-52.8 0-96 43.2-96 96s43.2 96 96 96 96-43.2 96-96-43.2-96-96-96zM256 480h-64c-17.6 0-32-14.4-32-32s14.4-32 32-32h64c17.6 0 32 14.4 32 32s-14.4 32-32 32zM832 416c17.6 0 32 14.4 32 32s-14.4 32-32 32h-64c-17.6 0-32-14.4-32-32s14.4-32 32-32h64z" />
<glyph unicode="&#xe658;" glyph-name="bill-2-f" horiz-adv-x="960" d="M0 320v-152c0 0 62.4 30.4 161.6 46.4l-35.2-4.8c-8 62.4-62.4 110.4-126.4 110.4zM128 736c0 6.4 0 12.8-1.6 19.2-92.8-19.2-126.4-54.4-126.4-54.4v-92.8c70.4 0 128 57.6 128 128zM769.6 673.6l32 4.8c-32-4.8-64-6.4-97.6-6.4-204.8 0-256 96-448 96-24 0-46.4-1.6-65.6-3.2 1.6-9.6 1.6-19.2 1.6-28.8 0-105.6-86.4-192-192-192v-160c96 0 177.6-72 190.4-166.4 30.4 3.2 62.4 6.4 97.6 6.4 172.8 0 294.4-96 448-96 12.8 0 24 0 35.2 0-1.6 9.6-3.2 20.8-3.2 32 0 105.6 86.4 192 192 192v160c-94.4 0-174.4 68.8-190.4 161.6zM508.8 294.4c-86.4 0-169.6 72-185.6 160s43.2 160 129.6 160c86.4 0 169.6-72 185.6-160s-41.6-160-129.6-160zM833.6 683.2c9.6-62.4 62.4-107.2 126.4-107.2v136c0 0-54.4-16-126.4-28.8zM832 160c0-8 0-16 1.6-24l-30.4-6.4c107.2 9.6 156.8 36.8 156.8 36.8v121.6c-70.4 0-128-57.6-128-128z" />
<glyph unicode="&#xe659;" glyph-name="bill-2" d="M320 192c83.2 0 156.8-24 227.2-48 68.8-24 140.8-48 220.8-48 160 0 236.8 41.6 240 43.2l16 9.6v606.4l-41.6-12.8c-1.6 0-126.4-38.4-246.4-38.4-99.2 0-158.4 22.4-220.8 46.4s-128 49.6-227.2 49.6c-200 0-272-70.4-278.4-78.4l-9.6-8v-596.8l46.4 22.4c0 0 110.4 52.8 273.6 52.8zM64 315.2c40-9.6 72-38.4 86.4-76.8-35.2-8-65.6-16-86.4-24v100.8zM864 166.4c3.2 56 43.2 104 96 118.4v-94.4c-17.6-8-49.6-17.6-96-24zM960 580.8c-38.4 9.6-70.4 36.8-84.8 72 33.6 4.8 64 12.8 84.8 17.6v-89.6zM491.2 691.2c65.6-25.6 134.4-51.2 244.8-51.2 25.6 0 49.6 1.6 73.6 3.2 22.4-67.2 80-116.8 150.4-129.6v-166.4c-91.2-16-160-94.4-160-188.8-9.6 0-20.8 0-32 0-68.8 0-132.8 20.8-200 44.8-75.2 27.2-153.6 52.8-248 52.8-38.4 0-73.6-3.2-104-6.4-20.8 68.8-80 120-150.4 131.2v166.4c89.6 14.4 158.4 92.8 160 185.6 19.2 1.6 40 3.2 64 3.2 86.4 0 142.4-22.4 201.6-44.8zM160 723.2c-4.8-54.4-44.8-97.6-96-110.4v73.6c12.8 8 43.2 25.6 96 36.8zM540.8 262.4c51.2 0 96 20.8 126.4 56 32 38.4 44.8 88 35.2 140.8-17.6 102.4-115.2 187.2-217.6 187.2-51.2 0-96-20.8-126.4-56-32-38.4-44.8-88-35.2-140.8 19.2-102.4 116.8-187.2 217.6-187.2zM408 548.8c17.6 22.4 46.4 33.6 76.8 33.6 72 0 140.8-59.2 153.6-132.8 6.4-33.6-1.6-65.6-20.8-88-17.6-22.4-46.4-33.6-76.8-33.6-72 0-140.8 59.2-153.6 132.8-6.4 33.6 1.6 65.6 20.8 88z" />
<glyph unicode="&#xe65a;" glyph-name="bills-1-f" horiz-adv-x="896" d="M0 240h896v-64h-896v64zM0 112h896v-64h-896v64zM0 848v-512h896v512h-896zM192 688h-64c-17.6 0-32 14.4-32 32s14.4 32 32 32h64c17.6 0 32-14.4 32-32s-14.4-32-32-32zM448 464c-70.4 0-128 57.6-128 128s57.6 128 128 128c70.4 0 128-57.6 128-128s-57.6-128-128-128zM768 432h-64c-17.6 0-32 14.4-32 32s14.4 32 32 32h64c17.6 0 32-14.4 32-32s-14.4-32-32-32z" />
<glyph unicode="&#xe65b;" glyph-name="bills-1" horiz-adv-x="960" d="M0 864v-576h960v576h-960zM896 352h-832v448h832v-448zM480 416c88 0 160 72 160 160s-72 160-160 160-160-72-160-160 72-160 160-160zM480 672c52.8 0 96-43.2 96-96s-43.2-96-96-96-96 43.2-96 96 43.2 96 96 96zM0 224h960v-64h-960v64zM0 96h960v-64h-960v64zM160 672h64c17.6 0 32 14.4 32 32s-14.4 32-32 32h-64c-17.6 0-32-14.4-32-32s14.4-32 32-32zM736 416h64c17.6 0 32 14.4 32 32s-14.4 32-32 32h-64c-17.6 0-32-14.4-32-32s14.4-32 32-32z" />
<glyph unicode="&#xe65c;" glyph-name="bills-2-f" horiz-adv-x="960" d="M192 736h-64v-512h736v64h-672zM64 608h-64v-512h736v64h-672zM256 800v-448h704v448h-704zM416 640h-32c-17.6 0-32 14.4-32 32s14.4 32 32 32h32c17.6 0 32-14.4 32-32s-14.4-32-32-32zM608 480c-52.8 0-96 43.2-96 96s43.2 96 96 96c52.8 0 96-43.2 96-96s-43.2-96-96-96zM832 448h-32c-17.6 0-32 14.4-32 32s14.4 32 32 32h32c17.6 0 32-14.4 32-32s-14.4-32-32-32z" />
<glyph unicode="&#xe65d;" glyph-name="bills-2" d="M1024 832h-768v-512h768v512zM960 384h-640v384h640v-384zM640 448c70.4 0 128 57.6 128 128s-57.6 128-128 128-128-57.6-128-128 57.6-128 128-128zM640 640c35.2 0 64-28.8 64-64s-28.8-64-64-64-64 28.8-64 64 28.8 64 64 64zM896 256h-704v512h-64v-576h768zM768 128h-704v512h-64v-576h768zM416 640h32c17.6 0 32 14.4 32 32s-14.4 32-32 32h-32c-17.6 0-32-14.4-32-32s14.4-32 32-32zM832 448h32c17.6 0 32 14.4 32 32s-14.4 32-32 32h-32c-17.6 0-32-14.4-32-32s14.4-32 32-32z" />
<glyph unicode="&#xe65e;" glyph-name="bitcoin-bill-f" horiz-adv-x="960" d="M526.4 505.6c8 8 12.8 17.6 12.8 28.8s-4.8 20.8-11.2 28.8c-8 8-17.6 12.8-28.8 12.8h-83.2v-83.2h81.6c11.2 0 20.8 4.8 28.8 12.8zM510.4 428.8c-1.6 0-3.2 0-4.8 0-3.2 0-6.4 0-8 0h-81.6v-108.8h94.4c14.4 0 28.8 6.4 38.4 16s16 24 16 38.4c0 30.4-24 54.4-54.4 54.4zM960 576v160h-960v-160c70.4 0 128-57.6 128-128s-57.6-128-128-128v-160h960v160c-70.4 0-128 57.6-128 128s57.6 128 128 128zM593.6 289.6c-14.4-14.4-32-24-49.6-28.8v-36.8h-64v32h-32v-32h-64v32h-32v384h32v32h64v-32h32v32h64v-43.2c11.2-4.8 20.8-11.2 28.8-20.8 19.2-19.2 30.4-46.4 30.4-75.2 0-24-8-46.4-22.4-64 28.8-22.4 48-56 48-96 0-30.4-12.8-60.8-35.2-83.2z" />
<glyph unicode="&#xe65f;" glyph-name="bitcoin-bill" d="M612.8 470.4c14.4 17.6 22.4 40 22.4 64 0 28.8-11.2 54.4-30.4 75.2-8 8-17.6 16-28.8 20.8v41.6h-64v-32h-32v32h-64v-32h-32v-384h32v-32h64v32h32v-32h64v36.8c19.2 4.8 35.2 16 49.6 28.8 22.4 22.4 35.2 52.8 35.2 83.2 0 40-19.2 75.2-48 97.6zM448 576h81.6c11.2 0 20.8-4.8 28.8-12.8s12.8-17.6 11.2-28.8c0-11.2-4.8-20.8-12.8-28.8s-17.6-11.2-28.8-11.2c0 0 0 0 0 0h-80v81.6zM580.8 336c-9.6-9.6-24-16-38.4-16 0 0 0 0 0 0h-94.4v108.8h81.6c3.2 0 6.4 0 8 0s3.2 0 4.8 0c30.4 0 54.4-24 54.4-54.4 0-14.4-4.8-28.8-16-38.4zM1024 352h-32c-52.8 0-96 43.2-96 96s43.2 96 96 96h32v224h-1024v-224h32c52.8 0 96-43.2 96-96s-43.2-96-96-96h-32v-224h1024v224zM960 192h-896v99.2c73.6 14.4 128 80 128 156.8s-54.4 142.4-128 156.8v99.2h896v-99.2c-73.6-14.4-128-80-128-156.8s54.4-142.4 128-156.8v-99.2z" />
<glyph unicode="&#xe660;" glyph-name="bitcoin-coin-f" horiz-adv-x="960" d="M619.2 587.2c0 46.4-38.4 84.8-84.8 84.8h-150.4v-171.2h148.8c48 0 86.4 38.4 86.4 86.4zM555.2 436.8c-1.6 0-4.8 0-6.4 0-4.8 0-9.6 0-14.4 0h-148.8v-212.8h30.4c0 0 1.6 0 1.6 0s1.6 0 1.6 0h91.2c1.6 0 3.2 0 3.2 0 1.6 0 3.2 0 3.2 0h38.4c59.2 0 107.2 48 107.2 107.2 0 57.6-48 105.6-107.2 105.6zM480 928c-265.6 0-480-214.4-480-480s214.4-480 480-480c265.6 0 480 214.4 480 480s-214.4 480-480 480zM555.2 160h-11.2v-32c0-17.6-14.4-32-32-32s-32 14.4-32 32v32h-32v-32c0-17.6-14.4-32-32-32s-32 14.4-32 32v32h-64v576h64v32c0 17.6 14.4 32 32 32s32-14.4 32-32v-32h32v32c0 17.6 14.4 32 32 32s32-14.4 32-32v-32c76.8-4.8 139.2-70.4 139.2-148.8 0-41.6-17.6-80-44.8-107.2 52.8-28.8 88-84.8 88-148.8 0-94.4-76.8-171.2-171.2-171.2z" />
<glyph unicode="&#xe661;" glyph-name="bitcoin-coin" d="M416 128c0-17.6 14.4-32 32-32s32 14.4 32 32v32h32v-32c0-17.6 14.4-32 32-32s32 14.4 32 32v32h11.2c94.4 0 171.2 76.8 171.2 171.2 0 64-35.2 120-88 148.8 27.2 27.2 44.8 65.6 44.8 107.2 0 78.4-60.8 144-139.2 148.8v32c0 17.6-14.4 32-32 32s-32-14.4-32-32v-32h-32v32c0 17.6-14.4 32-32 32s-32-14.4-32-32v-32h-64v-576h64v-32zM694.4 329.6c0-59.2-48-107.2-107.2-107.2h-38.4c-1.6 0-3.2 0-3.2 0-1.6 0-3.2 0-3.2 0h-91.2c0 0-1.6 0-1.6 0s-1.6 0-1.6 0l-32 1.6v212.8h148.8c4.8 0 9.6 0 14.4 0 1.6 0 4.8 0 6.4 0 60.8 0 108.8-48 108.8-107.2zM651.2 587.2c0-46.4-38.4-84.8-84.8-84.8h-148.8v169.6h148.8c46.4 0 84.8-38.4 84.8-84.8zM512-64c283.2 0 512 230.4 512 512s-230.4 512-512 512c-283.2 0-512-230.4-512-512s228.8-512 512-512zM512 896c246.4 0 448-201.6 448-448s-201.6-448-448-448c-246.4 0-448 201.6-448 448s201.6 448 448 448z" />
<glyph unicode="&#xe662;" glyph-name="bitcoin-stamp-f" horiz-adv-x="960" d="M619.2 587.2c0 46.4-38.4 84.8-84.8 84.8h-150.4v-171.2h148.8c48 0 86.4 38.4 86.4 86.4zM555.2 436.8c-1.6 0-4.8 0-6.4 0-4.8 0-9.6 0-14.4 0h-148.8v-212.8h30.4c0 0 1.6 0 1.6 0s1.6 0 1.6 0h91.2c1.6 0 3.2 0 3.2 0 1.6 0 3.2 0 3.2 0h38.4c59.2 0 107.2 48 107.2 107.2 0 57.6-48 105.6-107.2 105.6zM960 544l-73.6 73.6v104l-96 40-40 96h-104l-70.4 70.4-96-40-96 40-73.6-73.6h-104l-40-96-96-40v-104l-70.4-70.4 40-96-40-96 73.6-73.6v-102.4l96-40 40-96h104l70.4-72 96 40 96-40 73.6 73.6h104l40 96 96 40v104l70.4 70.4-40 96 40 96zM555.2 160h-11.2v-32c0-17.6-14.4-32-32-32s-32 14.4-32 32v32h-32v-32c0-17.6-14.4-32-32-32s-32 14.4-32 32v32h-64v576h64v32c0 17.6 14.4 32 32 32s32-14.4 32-32v-32h32v32c0 17.6 14.4 32 32 32s32-14.4 32-32v-32c76.8-4.8 139.2-70.4 139.2-148.8 0-41.6-17.6-80-44.8-107.2 52.8-28.8 88-84.8 88-148.8 0-94.4-76.8-171.2-171.2-171.2z" />
<glyph unicode="&#xe663;" glyph-name="bitcoin-stamp" d="M416 128c0-17.6 14.4-32 32-32s32 14.4 32 32v32h32v-32c0-17.6 14.4-32 32-32s32 14.4 32 32v32h11.2c94.4 0 171.2 76.8 171.2 171.2 0 64-35.2 120-88 148.8 27.2 27.2 44.8 65.6 44.8 107.2 0 78.4-60.8 144-139.2 148.8v32c0 17.6-14.4 32-32 32s-32-14.4-32-32v-32h-32v32c0 17.6-14.4 32-32 32s-32-14.4-32-32v-32h-64v-576h64v-32zM416 672h148.8c46.4 0 84.8-38.4 84.8-84.8s-38.4-84.8-84.8-84.8h-148.8v169.6zM416 436.8h148.8c4.8 0 9.6 0 14.4 0 1.6 0 4.8 0 6.4 0 59.2 0 107.2-48 107.2-107.2s-48-107.2-107.2-107.2h-38.4c-1.6 0-3.2 0-4.8 0s-3.2 0-3.2 0h-91.2c0 0-1.6 0-1.6 0s-1.6 0-1.6 0l-28.8 1.6v212.8zM9.6 329.6l64-64v-89.6c0-12.8 8-24 19.2-28.8l83.2-35.2 35.2-83.2c4.8-11.2 16-19.2 28.8-19.2h89.6l64-64c6.4-6.4 14.4-9.6 22.4-9.6 4.8 0 8 0 12.8 3.2l83.2 35.2 83.2-35.2c11.2-4.8 25.6-1.6 35.2 6.4l64 64h89.6c12.8 0 24 8 28.8 19.2l35.2 83.2 83.2 35.2c11.2 4.8 19.2 16 19.2 28.8v89.6l64 64c9.6 9.6 11.2 22.4 6.4 35.2l-33.6 83.2 35.2 83.2c4.8 11.2 1.6 25.6-6.4 35.2l-64 64v89.6c0 12.8-8 24-19.2 28.8l-84.8 35.2-35.2 83.2c-4.8 11.2-16 19.2-28.8 19.2h-89.6l-64 64c-9.6 9.6-22.4 12.8-35.2 6.4l-83.2-33.6-83.2 35.2c-11.2 4.8-25.6 1.6-35.2-6.4l-64-64h-89.6c-12.8 0-24-8-28.8-19.2l-35.2-84.8-83.2-35.2c-11.2-4.8-19.2-16-19.2-28.8v-89.6l-64-64c-9.6-9.6-12.8-22.4-8-35.2l35.2-83.2-35.2-83.2c-4.8-11.2-1.6-25.6 8-35.2zM100.8 460.8l-32 75.2 59.2 57.6c6.4 6.4 9.6 14.4 9.6 22.4v81.6l75.2 32c8 3.2 14.4 9.6 17.6 17.6l32 75.2h81.6c8 0 16 3.2 22.4 9.6l57.6 57.6 75.2-32c8-3.2 16-3.2 24 0l75.2 32 59.2-57.6c6.4-6.4 14.4-9.6 22.4-9.6h81.6l32-75.2c3.2-8 9.6-14.4 17.6-17.6l75.2-32v-81.6c0-8 3.2-16 9.6-22.4l57.6-57.6-32-75.2c-3.2-8-3.2-16 0-24l32-75.2-57.6-59.2c-6.4-6.4-9.6-14.4-9.6-22.4v-81.6l-75.2-32c-8-3.2-14.4-9.6-17.6-17.6l-32-75.2h-81.6c-8 0-16-3.2-22.4-9.6l-57.6-57.6-75.2 32c-8 3.2-16 3.2-24 0l-75.2-32-59.2 57.6c-6.4 6.4-14.4 9.6-22.4 9.6h-81.6l-32 75.2c-3.2 8-9.6 14.4-17.6 17.6l-75.2 32v81.6c0 8-3.2 16-9.6 22.4l-57.6 57.6 32 75.2c1.6 8 1.6 17.6-1.6 25.6z" />
<glyph unicode="&#xe664;" glyph-name="bitcoin" horiz-adv-x="576" d="M128-32c0-17.6 14.4-32 32-32s32 14.4 32 32v64h64v-64c0-17.6 14.4-32 32-32s32 14.4 32 32v64h16c132.8 0 240 107.2 240 240 0 97.6-59.2 182.4-144 220.8 48 38.4 80 97.6 80 163.2 0 108.8-84.8 198.4-192 206.4v65.6c0 17.6-14.4 32-32 32s-32-14.4-32-32v-64h-64v64c0 17.6-14.4 32-32 32s-32-14.4-32-32v-64h-128v-832h128v-64zM64 800h240c80 0 144-64 144-144s-64-144-144-144h-240v288zM64 448h240c8 0 16 0 22.4 1.6 3.2-1.6 6.4-1.6 9.6-1.6 97.6 0 176-78.4 176-176s-78.4-176-176-176h-41.6c-1.6 0-4.8 0-6.4 0s-4.8 0-6.4 0h-118.4c-1.6 0-1.6 0-3.2 0s-1.6 0-3.2 0h-92.8v352z" />
<glyph unicode="&#xe665;" glyph-name="board-f" horiz-adv-x="960" d="M928 336h-32v448h-832v-448h-32c-17.6 0-32-14.4-32-32s14.4-32 32-32h376l-208-235.2c-11.2-12.8-11.2-33.6 3.2-44.8 6.4-4.8 14.4-8 20.8-8 9.6 0 17.6 3.2 24 11.2l200 224v-235.2c0-17.6 14.4-32 32-32s32 14.4 32 32v235.2l200-225.6c6.4-6.4 14.4-11.2 24-11.2 8 0 14.4 3.2 20.8 8 12.8 11.2 14.4 32 3.2 44.8l-208 236.8h376c17.6 0 32 14.4 32 32s-14.4 32-32 32zM64 944h832v-96h-832v96z" />
<glyph unicode="&#xe666;" glyph-name="board-stats-f" horiz-adv-x="960" d="M928 368h-896c-17.6 0-32-14.4-32-32s14.4-32 32-32h416v-147.2l-150.4-150.4c-12.8-12.8-12.8-32 0-44.8 6.4-6.4 14.4-9.6 22.4-9.6s16 3.2 22.4 9.6l137.6 137.6 137.6-137.6c6.4-6.4 14.4-9.6 22.4-9.6s16 3.2 22.4 9.6c12.8 12.8 12.8 32 0 44.8l-150.4 150.4v147.2h416c17.6 0 32 14.4 32 32s-14.4 32-32 32zM896 944h-832v-288h147.2l86.4 86.4c8 8 17.6 11.2 27.2 9.6s19.2-8 24-17.6l73.6-145.6 65.6 86.4c4.8 8 14.4 12.8 24 12.8s17.6-3.2 25.6-9.6l38.4-40 137.6 164.8c11.2 12.8 32 16 44.8 4.8s16-32 4.8-44.8l-160-192c-6.4-6.4-14.4-11.2-22.4-11.2-9.6 0-17.6 3.2-24 9.6l-41.6 38.4-73.6-99.2c-6.4-8-16-12.8-25.6-12.8-1.6 0-1.6 0-3.2 0-11.2 1.6-20.8 8-25.6 17.6l-76.8 152-64-64c-6.4-6.4-14.4-9.6-22.4-9.6h-160v-160h832v512z" />
<glyph unicode="&#xe667;" glyph-name="board-stats" d="M992 352h-32v608h-896v-352c0 0 0 0 0 0s0 0 0 0v-256h-32c-17.6 0-32-14.4-32-32s14.4-32 32-32h448v-147.2l-150.4-150.4c-12.8-12.8-12.8-32 0-44.8 6.4-6.4 14.4-9.6 22.4-9.6s16 3.2 22.4 9.6l137.6 137.6 137.6-137.6c6.4-6.4 14.4-9.6 22.4-9.6s16 3.2 22.4 9.6c12.8 12.8 12.8 32 0 44.8l-150.4 150.4v147.2h448c17.6 0 32 14.4 32 32s-14.4 32-32 32zM128 576h128c8 0 16 3.2 22.4 9.6l64 64 76.8-152c4.8-9.6 14.4-16 25.6-17.6 1.6 0 1.6 0 3.2 0 9.6 0 19.2 4.8 25.6 12.8l73.6 99.2 38.4-38.4c6.4-6.4 14.4-9.6 24-9.6s17.6 4.8 22.4 11.2l160 192c11.2 12.8 9.6 33.6-4.8 44.8s-33.6 9.6-44.8-4.8l-136-163.2-38.4 40c-6.4 6.4-16 9.6-25.6 9.6s-17.6-4.8-24-12.8l-65.6-86.4-73.6 145.6c-4.8 9.6-12.8 16-24 17.6-9.6 1.6-20.8-1.6-27.2-9.6l-84.8-88h-115.2v256h768v-544h-768v224z" />
<glyph unicode="&#xe668;" glyph-name="board" d="M32 256h408l-208-235.2c-11.2-12.8-11.2-33.6 3.2-44.8 6.4-4.8 14.4-8 20.8-8 9.6 0 17.6 3.2 24 11.2l200 224v-235.2c0-17.6 14.4-32 32-32s32 14.4 32 32v235.2l200-225.6c6.4-6.4 14.4-11.2 24-11.2 8 0 14.4 3.2 20.8 8 12.8 11.2 14.4 32 3.2 44.8l-208 236.8h408c17.6 0 32 14.4 32 32s-14.4 32-32 32h-32v640h-896v-640h-32c-17.6 0-32-14.4-32-32s14.4-32 32-32zM896 896v-64h-768v64h768zM128 768h768v-448h-768v448z" />
<glyph unicode="&#xe669;" glyph-name="box-1-f" horiz-adv-x="960" d="M742.4 646.4l177.6 78.4-440 196.8-179.2-80zM0 708.8v-1.6zM36.8 724.8l443.2-195.2 182.4 81.6-412.8 184-27.2 11.2zM512 473.6v-499.2l448 200v499.2l-448-200zM832 267.2l-192-84.8v180.8l192 84.8v-180.8zM448 473.6l-448 198.4v-497.6l448-200z" />
<glyph unicode="&#xe66a;" glyph-name="box-1" d="M1024 736l-512 227.2-512-227.2v-576l512-227.2 512 227.2v576zM912 715.2l-139.2-60.8-400 177.6 139.2 60.8 400-177.6zM512 536l-401.6 179.2 184 81.6 401.6-177.6-184-83.2zM64 665.6l416-184v-464l-416 184v464zM544 17.6v464l416 185.6v-464l-416-185.6zM640 139.2l256 113.6v251.2l-256-113.6v-251.2zM704 348.8l128 57.6v-110.4l-128-57.6v110.4z" />
<glyph unicode="&#xe66b;" glyph-name="box-2-f" horiz-adv-x="960" d="M512 672h427.2l-171.2 256h-256zM448 672v256h-256l-171.2-256zM0 608v-640h960v640h-960zM448 96h-320v128h320v-128z" />
<glyph unicode="&#xe66c;" glyph-name="box-2" d="M1024 649.6l-206.4 310.4h-611.2l-206.4-310.4v-713.6h1024v713.6zM932.8 672h-388.8v224h238.4l150.4-224zM241.6 896h238.4v-224h-388.8l150.4 224zM64 0v608h896v-608h-896zM128 64h384v192h-384v-192zM192 192h256v-64h-256v64z" />
<glyph unicode="&#xe66d;" glyph-name="box-3-f" horiz-adv-x="960" d="M939.2 672l-171.2 256h-576l-171.2-256zM0 608v-640h960v640h-960zM640 352h-320c-35.2 0-64 28.8-64 64s28.8 64 64 64h320c35.2 0 64-28.8 64-64s-28.8-64-64-64z" />
<glyph unicode="&#xe66e;" glyph-name="box-3" d="M1024 649.6l-206.4 310.4h-611.2l-206.4-310.4v-713.6h1024v713.6zM241.6 896h542.4l148.8-224h-841.6l150.4 224zM64 0v608h896v-608h-896zM672 512h-320c-52.8 0-96-43.2-96-96s43.2-96 96-96h320c52.8 0 96 43.2 96 96s-43.2 96-96 96zM672 384h-320c-17.6 0-32 14.4-32 32s14.4 32 32 32h320c17.6 0 32-14.4 32-32s-14.4-32-32-32z" />
<glyph unicode="&#xe66f;" glyph-name="box-4-f" horiz-adv-x="960" d="M0 864h960v-192h-960v192zM64 32h832v576h-832v-576zM288 512h384c17.6 0 32-14.4 32-32s-14.4-32-32-32h-384c-17.6 0-32 14.4-32 32s14.4 32 32 32z" />
<glyph unicode="&#xe670;" glyph-name="box-4" d="M64 0h896v640h64v256h-1024v-256h64v-640zM896 64h-768v576h768v-576zM64 832h896v-128h-896v128zM320 448h384c17.6 0 32 14.4 32 32s-14.4 32-32 32h-384c-17.6 0-32-14.4-32-32s14.4-32 32-32z" />
<glyph unicode="&#xe671;" glyph-name="box-down-f" horiz-adv-x="960" d="M704 480c-140.8 0-256-115.2-256-256s115.2-256 256-256c140.8 0 256 115.2 256 256s-115.2 256-256 256zM822.4 169.6l-118.4-118.4-118.4 118.4c-12.8 12.8-12.8 32 0 44.8s32 12.8 44.8 0l41.6-41.6v179.2c0 17.6 14.4 32 32 32s32-14.4 32-32v-179.2l41.6 41.6c12.8 12.8 32 12.8 44.8 0s12.8-32 0-44.8zM614.4 928h-198.4v-192h326.4zM352 928h-198.4l-128-192h326.4zM704 544c22.4 0 43.2-1.6 64-6.4v134.4h-768v-512h390.4c-4.8 20.8-6.4 41.6-6.4 64 0 176 144 320 320 320z" />
<glyph unicode="&#xe672;" glyph-name="box-down" d="M832 494.4v212.8l-168 252.8h-496l-168-252.8v-579.2h465.6c40-112 145.6-192 270.4-192 158.4 0 288 129.6 288 288 0 124.8-80 232-192 270.4zM736 736h-288v160h180.8l107.2-160zM203.2 896h180.8v-160h-288l107.2 160zM64 192v480h704v-161.6c-11.2 1.6-20.8 1.6-32 1.6-158.4 0-288-129.6-288-288 0-11.2 0-20.8 1.6-32h-385.6zM736 0c-123.2 0-224 100.8-224 224s100.8 224 224 224 224-100.8 224-224-100.8-224-224-224zM809.6 214.4l-41.6-41.6v179.2c0 17.6-14.4 32-32 32s-32-14.4-32-32v-179.2l-41.6 41.6c-12.8 12.8-32 12.8-44.8 0s-12.8-32 0-44.8l96-96c0 0 0 0 0 0l22.4-22.4 22.4 22.4c0 0 0 0 0 0l96 96c12.8 12.8 12.8 32 0 44.8s-32 12.8-44.8 0z" />
<glyph unicode="&#xe673;" glyph-name="box-trolley-1-f" horiz-adv-x="992" d="M969.6 296l-105.6 35.2-360-128c-17.6 48-65.6 83.2-120 83.2 0 0 0 0 0 0 0 1.6-1.6 4.8-1.6 6.4l-200 537.6h-150.4c-17.6 0-32-14.4-32-32s14.4-32 32-32h105.6l184-494.4c0 0 0 0 0 0-40-22.4-65.6-64-65.6-112 0-70.4 57.6-128 128-128 64 0 116.8 48 126.4 108.8 0 0 0 0 0 0 3.2 0 6.4 0 11.2 1.6l342.4 121.6 84.8-28.8c16-4.8 35.2 3.2 40 20.8 6.4 16-1.6 33.6-19.2 40zM406.4 136c-6.4-6.4-14.4-9.6-22.4-9.6s-16 3.2-22.4 9.6c-6.4 6.4-9.6 14.4-9.6 22.4s3.2 16 9.6 22.4c12.8 11.2 33.6 11.2 44.8 0 6.4-6.4 9.6-14.4 9.6-22.4s-3.2-16-9.6-22.4zM625.6 811.2v0zM478.4 278.4l449.6 163.2-152 424-150.4-54.4 73.6-209.6-144-54.4-75.2 211.2-153.6-56z" />
<glyph unicode="&#xe674;" glyph-name="box-trolley-1" horiz-adv-x="992" d="M224 158.4c0-88 72-160 160-160 84.8 0 155.2 67.2 160 150.4l320 113.6 84.8-28.8c16-4.8 35.2 3.2 40 20.8 4.8 16-3.2 35.2-20.8 40l-104 36.8-329.6-116.8c-6.4 16-12.8 28.8-24 41.6l457.6 166.4-172.8 484.8-508.8-185.6 147.2-411.2c-16 4.8-32 8-49.6 8-3.2 0-8 0-11.2 0l-190.4 512h-150.4c-17.6 0-32-14.4-32-32s14.4-32 32-32h105.6l172.8-465.6c-51.2-27.2-86.4-80-86.4-142.4zM659.2 620.8l-84.8-32-54.4 150.4 86.4 32 52.8-150.4zM460.8 716.8l75.2-212.8 203.2 78.4-73.6 208 89.6 32 129.6-363.2-387.2-139.2-129.6 363.2 92.8 33.6zM384 254.4c52.8 0 96-43.2 96-96s-43.2-96-96-96-96 43.2-96 96 43.2 96 96 96zM384 126.4c8 0 16 3.2 22.4 9.6s9.6 14.4 9.6 22.4-3.2 16-9.6 22.4c-11.2 12.8-33.6 12.8-44.8 0-6.4-6.4-9.6-14.4-9.6-22.4s3.2-16 9.6-22.4c6.4-6.4 14.4-9.6 22.4-9.6z" />
<glyph unicode="&#xe675;" glyph-name="box-trolley-2-f" horiz-adv-x="768" d="M588.8 80h-364.8c0 0-1.6 0-1.6 0-4.8 38.4-30.4 70.4-64 86.4 1.6 3.2 1.6 6.4 1.6 9.6v768h-128c-17.6 0-32-14.4-32-32s14.4-32 32-32h64v-704c0 0 0-1.6 0-1.6-54.4-8-96-54.4-96-110.4 0-62.4 49.6-112 112-112 44.8 0 84.8 27.2 102.4 65.6 3.2-1.6 6.4-1.6 9.6-1.6h339.2l54.4-54.4c6.4-6.4 14.4-9.6 22.4-9.6s16 3.2 22.4 9.6c12.8 12.8 12.8 32 0 44.8l-73.6 73.6zM576 656v-224h-160v224h-192v-512h544v512z" />
<glyph unicode="&#xe676;" glyph-name="box-trolley-2" horiz-adv-x="832" d="M0 80c0-80 64-144 144-144 62.4 0 115.2 40 136 96h315.2l54.4-54.4c6.4-6.4 14.4-9.6 22.4-9.6s16 3.2 22.4 9.6c12.8 12.8 12.8 32 0 44.8l-73.6 73.6h-334.4c-1.6 11.2-3.2 22.4-8 32h553.6v576h-608v-504c-9.6 6.4-20.8 11.2-32 16v744h-128c-17.6 0-32-14.4-32-32s14.4-32 32-32h64v-673.6c-72-8-128-68.8-128-142.4zM480 640h96v-160h-96v160zM288 640h128v-224h224v224h128v-448h-480v448zM224 80c0-44.8-35.2-80-80-80s-80 35.2-80 80 35.2 80 80 80 80-35.2 80-80z" />
<glyph unicode="&#xe677;" glyph-name="box-up" d="M832 494.4v212.8l-168 252.8h-496l-168-252.8v-579.2h465.6c40-112 145.6-192 270.4-192 158.4 0 288 129.6 288 288 0 124.8-80 232-192 270.4zM736 736h-288v160h180.8l107.2-160zM203.2 896h180.8v-160h-288l107.2 160zM64 192v480h704v-161.6c-11.2 1.6-20.8 1.6-32 1.6-158.4 0-288-129.6-288-288 0-11.2 0-20.8 1.6-32h-385.6zM736 0c-123.2 0-224 100.8-224 224s100.8 224 224 224 224-100.8 224-224-100.8-224-224-224zM758.4 374.4c0 0 0 0 0 0l-22.4 22.4-22.4-22.4c0 0 0 0 0 0l-96-96c-12.8-12.8-12.8-32 0-44.8s32-12.8 44.8 0l41.6 41.6v-179.2c0-17.6 14.4-32 32-32s32 14.4 32 32v179.2l41.6-41.6c6.4-6.4 14.4-9.6 22.4-9.6s16 3.2 22.4 9.6c12.8 12.8 12.8 32 0 44.8l-96 96z" />
<glyph unicode="&#xe678;" glyph-name="box-check" d="M1024 224c0 124.8-80 232-192 270.4v212.8l-168 252.8h-496l-168-252.8v-579.2h465.6c40-112 145.6-192 270.4-192 158.4 0 288 129.6 288 288zM736 736h-288v160h180.8l107.2-160zM203.2 896h180.8v-160h-288l107.2 160zM64 192v480h704v-161.6c-11.2 1.6-20.8 1.6-32 1.6-158.4 0-288-129.6-288-288 0-11.2 0-20.8 1.6-32h-385.6zM736 0c-123.2 0-224 100.8-224 224s100.8 224 224 224 224-100.8 224-224-100.8-224-224-224zM824 307.2l-105.6-118.4-56 56c-12.8 12.8-32 12.8-44.8 0s-12.8-32 0-44.8l104-104 150.4 169.6c11.2 12.8 11.2 33.6-3.2 44.8-12.8 11.2-33.6 11.2-44.8-3.2z" />
<glyph unicode="&#xe679;" glyph-name="box-up-f" horiz-adv-x="960" d="M704-32c140.8 0 256 115.2 256 256s-115.2 256-256 256-256-115.2-256-256c0-140.8 115.2-256 256-256zM585.6 278.4l118.4 118.4 118.4-118.4c12.8-12.8 12.8-32 0-44.8s-32-12.8-44.8 0l-41.6 41.6v-179.2c0-17.6-14.4-32-32-32s-32 14.4-32 32v179.2l-41.6-41.6c-12.8-12.8-32-12.8-44.8 0s-12.8 32 0 44.8zM614.4 928h-198.4v-192h326.4zM352 928h-198.4l-128-192h326.4zM704 544c22.4 0 43.2-1.6 64-6.4v134.4h-768v-512h390.4c-4.8 20.8-6.4 41.6-6.4 64 0 176 144 320 320 320z" />
<glyph unicode="&#xe67a;" glyph-name="box-check-f" horiz-adv-x="960" d="M704 480c-140.8 0-256-115.2-256-256s115.2-256 256-256c140.8 0 256 115.2 256 256s-115.2 256-256 256zM840 265.6l-150.4-169.6-104 104c-12.8 12.8-12.8 32 0 44.8s32 12.8 44.8 0l56-56 105.6 118.4c11.2 12.8 32 14.4 44.8 3.2s14.4-32 3.2-44.8zM614.4 928h-198.4v-192h326.4zM352 928h-198.4l-128-192h326.4zM704 544c22.4 0 43.2-1.6 64-6.4v134.4h-768v-512h390.4c-4.8 20.8-6.4 41.6-6.4 64 0 176 144 320 320 320z" />
<glyph unicode="&#xe67b;" glyph-name="box-upside-f" horiz-adv-x="960" d="M0 928v-960h960v960h-960zM521.6 662.4l128 128c0 0 0 0 0 0l22.4 22.4 150.4-150.4c12.8-12.8 12.8-32 0-44.8-4.8-6.4-12.8-9.6-22.4-9.6-8 0-16 3.2-22.4 9.6l-73.6 73.6v-435.2c0-17.6-14.4-32-32-32s-32 14.4-32 32v435.2l-73.6-73.6c-12.8-12.8-32-12.8-44.8 0s-12.8 32 0 44.8zM137.6 662.4l128 128c0 0 0 0 0 0l22.4 22.4 150.4-150.4c12.8-12.8 12.8-32 0-44.8-6.4-6.4-14.4-9.6-22.4-9.6s-16 3.2-22.4 9.6l-73.6 73.6v-435.2c0-17.6-14.4-32-32-32s-32 14.4-32 32v435.2l-73.6-73.6c-12.8-12.8-32-12.8-44.8 0s-12.8 32 0 44.8zM832 64h-704c-17.6 0-32 14.4-32 32s14.4 32 32 32h704c17.6 0 32-14.4 32-32s-14.4-32-32-32z" />
<glyph unicode="&#xe67c;" glyph-name="box-upside" d="M1024 960h-1024v-1024h1024v1024zM960 0h-896v896h896v-896zM160 64h704c17.6 0 32 14.4 32 32s-14.4 32-32 32h-704c-17.6 0-32-14.4-32-32s14.4-32 32-32zM214.4 617.6l73.6 73.6v-435.2c0-17.6 14.4-32 32-32s32 14.4 32 32v435.2l73.6-73.6c6.4-6.4 14.4-9.6 22.4-9.6s16 3.2 22.4 9.6c12.8 12.8 12.8 32 0 44.8l-150.4 150.4-150.4-150.4c-12.8-12.8-12.8-32 0-44.8s32-12.8 44.8 0zM598.4 617.6l73.6 73.6v-435.2c0-17.6 14.4-32 32-32s32 14.4 32 32v435.2l73.6-73.6c6.4-6.4 14.4-9.6 22.4-9.6s16 3.2 22.4 9.6c12.8 12.8 12.8 32 0 44.8l-150.4 150.4-150.4-150.4c-12.8-12.8-12.8-32 0-44.8s33.6-12.8 44.8 0z" />
<glyph unicode="&#xe67d;" glyph-name="briefcase-1-f" horiz-adv-x="960" d="M512 880h-64c-88 0-160-72-160-160v-704h384v640h-320v64c0 52.8 43.2 96 96 96h64c52.8 0 96-43.2 96-96v-78.4h64v78.4c0 88-72 160-160 160zM896 656h-160v-640h160c35.2 0 64 28.8 64 64v512c0 35.2-28.8 64-64 64zM0 592v-512c0-35.2 28.8-64 64-64h160v640h-160c-35.2 0-64-28.8-64-64z" />
<glyph unicode="&#xe67e;" glyph-name="briefcase-1" d="M928 704h-224v32c0 88-72 160-160 160h-64c-88 0-160-72-160-160v-32h-224c-52.8 0-96-43.2-96-96v-512c0-52.8 43.2-96 96-96h832c52.8 0 96 43.2 96 96v512c0 52.8-43.2 96-96 96zM704 640v-576h-384v576h384zM384 736c0 52.8 43.2 96 96 96h64c52.8 0 96-43.2 96-96v-32h-256v32zM64 96v512c0 17.6 14.4 32 32 32h160v-576h-160c-17.6 0-32 14.4-32 32zM960 96c0-17.6-14.4-32-32-32h-160v576h160c17.6 0 32-14.4 32-32v-512z" />
<glyph unicode="&#xe67f;" glyph-name="briefcase-2-f" horiz-adv-x="960" d="M416 320h128v-128h-128v128zM896 672h-544v64c0 52.8 43.2 96 96 96h64c52.8 0 96-43.2 96-96v-62.4h64v62.4c0 88-72 160-160 160h-64c-88 0-160-72-160-160v-64h-224c-35.2 0-64-28.8-64-64v-352h352v128h256v-128h352v352c0 35.2-28.8 64-64 64zM608 128h-256v64h-320v-192h896v192h-320z" />
<glyph unicode="&#xe680;" glyph-name="briefcase-2" d="M928 720h-224v32c0 88-72 160-160 160h-64c-88 0-160-72-160-160v-32h-224c-52.8 0-96-43.2-96-96v-384h32v-256h960v256h32v384c0 52.8-43.2 96-96 96zM384 752c0 52.8 43.2 96 96 96h64c52.8 0 96-43.2 96-96v-32h-256v32zM64 624c0 17.6 14.4 32 32 32h832c17.6 0 32-14.4 32-32v-320h-352v64h-192v-64h-352v320zM544 304v-64h-64v64h64zM928 48h-832v192h320v-64h192v64h320v-192z" />
<glyph unicode="&#xe681;" glyph-name="calc-1-f" horiz-adv-x="704" d="M480 768h64v-64h-64v64zM672 928h-640c-17.6 0-32-14.4-32-32v-896c0-17.6 14.4-32 32-32h640c17.6 0 32 14.4 32 32v896c0 17.6-14.4 32-32 32zM184 48c-30.4 0-56 25.6-56 56s25.6 56 56 56 56-25.6 56-56-25.6-56-56-56zM184 224c-30.4 0-56 25.6-56 56s25.6 56 56 56 56-25.6 56-56c0-30.4-25.6-56-56-56zM184 400c-30.4 0-56 25.6-56 56s25.6 56 56 56 56-25.6 56-56-25.6-56-56-56zM352 48c-30.4 0-56 25.6-56 56s25.6 56 56 56 56-25.6 56-56-25.6-56-56-56zM352 224c-30.4 0-56 25.6-56 56s25.6 56 56 56 56-25.6 56-56c0-30.4-25.6-56-56-56zM352 400c-30.4 0-56 25.6-56 56s25.6 56 56 56 56-25.6 56-56-25.6-56-56-56zM520 48c-30.4 0-56 25.6-56 56s25.6 56 56 56 56-25.6 56-56-25.6-56-56-56zM520 224c-30.4 0-56 25.6-56 56s25.6 56 56 56 56-25.6 56-56c0-30.4-25.6-56-56-56zM520 400c-30.4 0-56 25.6-56 56s25.6 56 56 56 56-25.6 56-56-25.6-56-56-56zM608 608h-512v224h512v-224z" />
<glyph unicode="&#xe682;" glyph-name="calc-1" horiz-adv-x="768" d="M64-64h640c35.2 0 64 28.8 64 64v896c0 35.2-28.8 64-64 64h-640c-35.2 0-64-28.8-64-64v-896c0-35.2 28.8-64 64-64zM64 896h640v-896h-640v896zM216 160c-30.4 0-56-25.6-56-56s25.6-56 56-56 56 25.6 56 56-25.6 56-56 56zM216 96c-4.8 0-8 3.2-8 8s3.2 8 8 8 8-3.2 8-8-3.2-8-8-8zM384 160c-30.4 0-56-25.6-56-56s25.6-56 56-56 56 25.6 56 56-25.6 56-56 56zM384 96c-4.8 0-8 3.2-8 8s3.2 8 8 8c4.8 0 8-3.2 8-8s-3.2-8-8-8zM552 160c-30.4 0-56-25.6-56-56s25.6-56 56-56 56 25.6 56 56-25.6 56-56 56zM552 96c-4.8 0-8 3.2-8 8s3.2 8 8 8 8-3.2 8-8-3.2-8-8-8zM216 336c-30.4 0-56-25.6-56-56s25.6-56 56-56 56 25.6 56 56-25.6 56-56 56zM216 272c-4.8 0-8 3.2-8 8s3.2 8 8 8 8-3.2 8-8-3.2-8-8-8zM384 336c-30.4 0-56-25.6-56-56s25.6-56 56-56 56 25.6 56 56-25.6 56-56 56zM384 272c-4.8 0-8 3.2-8 8s3.2 8 8 8c4.8 0 8-3.2 8-8s-3.2-8-8-8zM552 336c-30.4 0-56-25.6-56-56s25.6-56 56-56 56 25.6 56 56-25.6 56-56 56zM552 272c-4.8 0-8 3.2-8 8s3.2 8 8 8 8-3.2 8-8-3.2-8-8-8zM216 512c-30.4 0-56-25.6-56-56s25.6-56 56-56 56 25.6 56 56-25.6 56-56 56zM216 448c-4.8 0-8 3.2-8 8s3.2 8 8 8 8-3.2 8-8-3.2-8-8-8zM384 512c-30.4 0-56-25.6-56-56s25.6-56 56-56 56 25.6 56 56-25.6 56-56 56zM384 448c-4.8 0-8 3.2-8 8s3.2 8 8 8c4.8 0 8-3.2 8-8s-3.2-8-8-8zM552 512c-30.4 0-56-25.6-56-56s25.6-56 56-56 56 25.6 56 56-25.6 56-56 56zM552 448c-4.8 0-8 3.2-8 8s3.2 8 8 8 8-3.2 8-8-3.2-8-8-8zM96 576h576v288h-576v-288zM160 800h448v-160h-448v160zM512 768h64v-64h-64v64z" />
<glyph unicode="&#xe683;" glyph-name="calc-2-f" horiz-adv-x="768" d="M352 320h-352v-288c0-35.2 28.8-64 64-64h288v352zM262.4 57.6c-6.4-6.4-14.4-9.6-22.4-9.6s-16 3.2-22.4 9.6l-41.6 41.6-41.6-41.6c-6.4-6.4-14.4-9.6-22.4-9.6s-16 3.2-22.4 9.6c-12.8 12.8-12.8 32 0 44.8l41.6 41.6-41.6 41.6c-12.8 12.8-12.8 32 0 44.8s32 12.8 44.8 0l41.6-41.6 41.6 41.6c12.8 12.8 32 12.8 44.8 0s12.8-32 0-44.8l-41.6-41.6 41.6-41.6c12.8-12.8 12.8-32 0-44.8zM0 384h352v320h-352v-320zM80 576h64v64c0 17.6 14.4 32 32 32s32-14.4 32-32v-64h64c17.6 0 32-14.4 32-32s-14.4-32-32-32h-64v-64c0-17.6-14.4-32-32-32s-32 14.4-32 32v64h-64c-17.6 0-32 14.4-32 32s14.4 32 32 32zM768 384v320h-352v-320h352zM496 576h192c17.6 0 32-14.4 32-32s-14.4-32-32-32h-192c-17.6 0-32 14.4-32 32s14.4 32 32 32zM768 768v96c0 35.2-28.8 64-64 64h-640c-35.2 0-64-28.8-64-64v-96h768zM416 320v-352h288c35.2 0 64 28.8 64 64v288h-352zM656 64h-128c-17.6 0-32 14.4-32 32s14.4 32 32 32h128c17.6 0 32-14.4 32-32s-14.4-32-32-32zM656 160h-128c-17.6 0-32 14.4-32 32s14.4 32 32 32h128c17.6 0 32-14.4 32-32s-14.4-32-32-32z" />
<glyph unicode="&#xe684;" glyph-name="calc-2" horiz-adv-x="832" d="M96 960c-52.8 0-96-43.2-96-96v-832c0-52.8 43.2-96 96-96h640c52.8 0 96 43.2 96 96v832c0 52.8-43.2 96-96 96h-640zM768 704v-320h-320v320h320zM384 384h-320v320h320v-320zM64 32v288h320v-320h-288c-17.6 0-32 14.4-32 32zM736 0h-288v320h320v-288c0-17.6-14.4-32-32-32zM768 864v-96h-704v96c0 17.6 14.4 32 32 32h640c17.6 0 32-14.4 32-32zM128 512h64v-64c0-17.6 14.4-32 32-32s32 14.4 32 32v64h64c17.6 0 32 14.4 32 32s-14.4 32-32 32h-64v64c0 17.6-14.4 32-32 32s-32-14.4-32-32v-64h-64c-17.6 0-32-14.4-32-32s14.4-32 32-32zM512 512h192c17.6 0 32 14.4 32 32s-14.4 32-32 32h-192c-17.6 0-32-14.4-32-32s14.4-32 32-32zM672 224h-128c-17.6 0-32-14.4-32-32s14.4-32 32-32h128c17.6 0 32 14.4 32 32s-14.4 32-32 32zM672 128h-128c-17.6 0-32-14.4-32-32s14.4-32 32-32h128c17.6 0 32 14.4 32 32s-14.4 32-32 32zM268.8 160l41.6 41.6c12.8 12.8 12.8 32 0 44.8s-32 12.8-44.8 0l-41.6-41.6-41.6 41.6c-12.8 12.8-32 12.8-44.8 0s-12.8-32 0-44.8l41.6-41.6-41.6-41.6c-12.8-12.8-12.8-32 0-44.8 6.4-6.4 14.4-9.6 22.4-9.6s16 3.2 22.4 9.6l41.6 41.6 41.6-41.6c6.4-6.4 14.4-9.6 22.4-9.6s16 3.2 22.4 9.6c12.8 12.8 12.8 32 0 44.8l-41.6 41.6z" />
<glyph unicode="&#xe685;" glyph-name="calc-3-f" horiz-adv-x="896" d="M480 480h416v288c0 70.4-57.6 128-128 128h-288v-416zM592 704h192c17.6 0 32-14.4 32-32s-14.4-32-32-32h-192c-17.6 0-32 14.4-32 32s14.4 32 32 32zM416 416h-416v-288c0-70.4 57.6-128 128-128h288v416zM294.4 121.6c-6.4-6.4-14.4-9.6-22.4-9.6s-16 3.2-22.4 9.6l-41.6 41.6-41.6-41.6c-6.4-6.4-14.4-9.6-22.4-9.6s-16 3.2-22.4 9.6c-12.8 12.8-12.8 32 0 44.8l41.6 41.6-41.6 41.6c-12.8 12.8-12.8 32 0 44.8s32 12.8 44.8 0l41.6-41.6 41.6 41.6c12.8 12.8 32 12.8 44.8 0s12.8-32 0-44.8l-41.6-41.6 41.6-41.6c12.8-12.8 12.8-32 0-44.8zM416 480v416h-288c-70.4 0-128-57.6-128-128v-288h416zM112 720h64v64c0 17.6 14.4 32 32 32s32-14.4 32-32v-64h64c17.6 0 32-14.4 32-32s-14.4-32-32-32h-64v-64c0-17.6-14.4-32-32-32s-32 14.4-32 32v64h-64c-17.6 0-32 14.4-32 32s14.4 32 32 32zM480 416v-416h288c70.4 0 128 57.6 128 128v288h-416zM752 112h-128c-17.6 0-32 14.4-32 32s14.4 32 32 32h128c17.6 0 32-14.4 32-32s-14.4-32-32-32zM752 240h-128c-17.6 0-32 14.4-32 32s14.4 32 32 32h128c17.6 0 32-14.4 32-32s-14.4-32-32-32z" />
<glyph unicode="&#xe686;" glyph-name="calc-3" horiz-adv-x="960" d="M160 640h64v-64c0-17.6 14.4-32 32-32s32 14.4 32 32v64h64c17.6 0 32 14.4 32 32s-14.4 32-32 32h-64v64c0 17.6-14.4 32-32 32s-32-14.4-32-32v-64h-64c-17.6 0-32-14.4-32-32s14.4-32 32-32zM342.4 310.4c-12.8 12.8-32 12.8-44.8 0l-41.6-41.6-41.6 41.6c-12.8 12.8-32 12.8-44.8 0s-12.8-32 0-44.8l41.6-41.6-41.6-41.6c-12.8-12.8-12.8-32 0-44.8 6.4-6.4 14.4-9.6 22.4-9.6s16 3.2 22.4 9.6l41.6 41.6 41.6-41.6c6.4-6.4 14.4-9.6 22.4-9.6s16 3.2 22.4 9.6c12.8 12.8 12.8 32 0 44.8l-41.6 41.6 41.6 41.6c12.8 12.8 12.8 32 0 44.8zM608 640h192c17.6 0 32 14.4 32 32s-14.4 32-32 32h-192c-17.6 0-32-14.4-32-32s14.4-32 32-32zM768 320h-128c-17.6 0-32-14.4-32-32s14.4-32 32-32h128c17.6 0 32 14.4 32 32s-14.4 32-32 32zM768 192h-128c-17.6 0-32-14.4-32-32s14.4-32 32-32h128c17.6 0 32 14.4 32 32s-14.4 32-32 32zM160-32h640c88 0 160 72 160 160v640c0 88-72 160-160 160h-640c-88 0-160-72-160-160v-640c0-88 72-160 160-160zM160 32c-52.8 0-96 43.2-96 96v288h384v-384h-288zM800 32h-288v384h384c0 0 0 0 0 0v-288c0-52.8-43.2-96-96-96zM896 768v-288c0 0 0 0 0 0h-384v384h288c52.8 0 96-43.2 96-96zM160 864h288v-384h-384v288c0 52.8 43.2 96 96 96z" />
<glyph unicode="&#xe687;" glyph-name="card-f" horiz-adv-x="960" d="M960 624v80c0 27.2-20.8 48-48 48h-864c-27.2 0-48-20.8-48-48v-80h960zM0 560v-368c0-27.2 20.8-48 48-48h864c27.2 0 48 20.8 48 48v368h-960zM256 304h-128c-17.6 0-32 14.4-32 32s14.4 32 32 32h128c17.6 0 32-14.4 32-32s-14.4-32-32-32zM448 432h-320c-17.6 0-32 14.4-32 32s14.4 32 32 32h320c17.6 0 32-14.4 32-32s-14.4-32-32-32zM832 432h-96c-17.6 0-32 14.4-32 32s14.4 32 32 32h96c17.6 0 32-14.4 32-32s-14.4-32-32-32z" />
<glyph unicode="&#xe688;" glyph-name="card-fast-f" horiz-adv-x="992" d="M944 672h-464c-27.2 0-56-14.4-64-48l-64-352c0-27.2 20.8-48 48-48h464c35.2 0 54.4 19.2 64 48l64 352c0 27.2-20.8 48-48 48zM288 640h-256c-17.6 0-32-14.4-32-32s14.4-32 32-32h256c17.6 0 32 14.4 32 32s-14.4 32-32 32zM256 512h-160c-17.6 0-32-14.4-32-32s14.4-32 32-32h160c17.6 0 32 14.4 32 32s-14.4 32-32 32zM224 384h-64c-17.6 0-32-14.4-32-32s14.4-32 32-32h64c17.6 0 32 14.4 32 32s-14.4 32-32 32z" />
<glyph unicode="&#xe689;" glyph-name="card-fast" d="M958.4 262.4l65.6 355.2v6.4c0 44.8-35.2 80-80 80h-464c-40 0-84.8-22.4-96-73.6l-64-352v-6.4c0-44.8 35.2-80 80-80h464c46.4 0 80 25.6 94.4 70.4zM864 256h-464c-8 0-14.4 6.4-16 14.4l64 347.2c4.8 20.8 25.6 22.4 32 22.4h464c8 0 14.4-6.4 16-14.4l-62.4-345.6c-6.4-17.6-16-24-33.6-24zM32 576h256c17.6 0 32 14.4 32 32s-14.4 32-32 32h-256c-17.6 0-32-14.4-32-32s14.4-32 32-32zM288 480c0 17.6-14.4 32-32 32h-160c-17.6 0-32-14.4-32-32s14.4-32 32-32h160c17.6 0 32 14.4 32 32zM160 384c-17.6 0-32-14.4-32-32s14.4-32 32-32h64c17.6 0 32 14.4 32 32s-14.4 32-32 32h-64z" />
<glyph unicode="&#xe68a;" glyph-name="card-hand-f" horiz-adv-x="640" d="M219.2 312l-115.2 115.2c-56 56-56 147.2 0 203.2 27.2 27.2 62.4 41.6 100.8 41.6 17.6 0 33.6-3.2 48-8v264h-220.8c-17.6 0-32-14.4-32-32v-608c0-17.6 14.4-32 32-32h188.8c-3.2 22.4-1.6 41.6-1.6 56zM448 896c0 17.6-14.4 32-32 32h-96v-308.8l128-128v404.8zM587.2 500.8c-14.4 14.4-46.4 46.4-76.8 75.2v-204.8l-19.2-16-228.8 228.8c-30.4 30.4-81.6 30.4-112 0s-30.4-81.6 0-112l137.6-137.6c0 0-20.8-65.6 16-142.4h-139.2c6.4-35.2 19.2-76.8 48-120 44.8-72 43.2-92.8 43.2-104h384c0 0 1.6 214.4 1.6 352-1.6 92.8-14.4 142.4-54.4 180.8z" />
<glyph unicode="&#xe68b;" glyph-name="card-hand" horiz-adv-x="704" d="M448 960h-384c-35.2 0-64-28.8-64-64v-608c0-35.2 28.8-64 64-64h96c3.2-48 16-105.6 56-169.6 38.4-60.8 38.4-78.4 38.4-84.8v-1.6c0-17.6 14.4-32 32-32s32 14.4 32 32c0 20.8-3.2 49.6-49.6 120-32 49.6-43.2 94.4-46.4 134.4h65.6c12.8-46.4 41.6-102.4 104-153.6 6.4-4.8 12.8-6.4 20.8-6.4 9.6 0 19.2 4.8 25.6 11.2 11.2 14.4 9.6 33.6-4.8 44.8-116.8 94.4-86.4 200-84.8 203.2l6.4 19.2-150.4 155.2c-19.2 19.2-19.2 48 0 67.2s48 19.2 67.2 0l251.2-251.2c12.8-12.8 32-12.8 44.8 0s12.8 32 0 44.8l-56 56v150.4c32-32 70.4-70.4 84.8-84.8 32-32 43.2-73.6 43.2-158.4 0-137.6-1.6-352-1.6-352h64c0 0 1.6 214.4 1.6 352 0 88-11.2 152-62.4 203.2-24 24-104 102.4-131.2 129.6v243.2c1.6 35.2-27.2 64-62.4 64zM160 608c-43.2-43.2-43.2-113.6 0-156.8l124.8-124.8c-1.6-9.6-3.2-22.4-3.2-36.8h-89.6c0 0 0 0 0 0s0 0 0 0h-128v606.4h224v-267.2c-41.6 20.8-92.8 12.8-128-20.8zM352 572.8v323.2h96v-419.2l-96 96z" />
<glyph unicode="&#xe68c;" glyph-name="card-lock-f" horiz-adv-x="960" d="M896 352v160c0 70.4-57.6 128-128 128s-128-57.6-128-128v-160h-64v-256h384v256h-64zM800 192c0-17.6-14.4-32-32-32s-32 14.4-32 32v64c0 17.6 14.4 32 32 32s32-14.4 32-32v-64zM832 352h-128v160c0 35.2 28.8 64 64 64s64-28.8 64-64v-160zM576 512c0 49.6 19.2 94.4 49.6 128h-625.6v-313.6c0-20.8 17.6-38.4 38.4-38.4h473.6v128h64v96zM230.4 384h-102.4c-17.6 0-32 14.4-32 32s14.4 32 32 32h102.4c17.6 0 32-14.4 32-32s-14.4-32-32-32zM384 512h-256c-17.6 0-32 14.4-32 32s14.4 32 32 32h256c17.6 0 32-14.4 32-32s-14.4-32-32-32zM768 761.6c0 20.8-17.6 38.4-38.4 38.4h-691.2c-20.8 0-38.4-17.6-38.4-38.4v-57.6h768v57.6z" />
</font>
</defs>
</svg>
